<?xml version="1.0" standalone="no"?>
<!DOCTYPE svg PUBLIC "-//W3C//DTD SVG 1.1//EN" "http://www.w3.org/Graphics/SVG/1.1/DTD/svg11.dtd" >
<svg xmlns="http://www.w3.org/2000/svg">
<metadata></metadata>
<defs>
<font id="robotobold" horiz-adv-x="1156" >
<font-face units-per-em="2048" ascent="1638" descent="-410" />
<missing-glyph horiz-adv-x="510" />
<glyph unicode="fi" horiz-adv-x="1249" d="M20 877v205h161v74q0 204 124.5 314.5t350.5 110.5q78 0 154 -15.5t176 -44.5l-42 -230q-73 22 -132.5 34t-136.5 12q-101 0 -151.5 -46t-50.5 -135v-74h213v-205h-213v-877h-292v877h-161zM829 0v1082h292v-1082h-292z" />
<glyph unicode=" "  horiz-adv-x="510" />
<glyph unicode="&#x09;" horiz-adv-x="510" />
<glyph unicode="&#xa0;" horiz-adv-x="510" />
<glyph unicode="!" horiz-adv-x="557" d="M134 0v256h292v-256h-292zM134 502v954h292v-954h-292z" />
<glyph unicode="&#x22;" horiz-adv-x="656" d="M50 1039v524h230v-275l-102 -249h-128zM376 1039v524h230v-275l-102 -249h-128z" />
<glyph unicode="#" horiz-adv-x="1219" d="M48 410v169h256l51 290h-232v171h262l73 416h183l-73 -416h192l74 416h183l-73 -416h220v-171h-250l-51 -290h225v-169h-254l-72 -410h-184l72 410h-192l-71 -410h-184l72 410h-227zM488 579h191l51 290h-192z" />
<glyph unicode="$" horiz-adv-x="1175" d="M96 449l2 5h285q0 -134 61.5 -192t156.5 -58q91 0 139.5 48.5t48.5 130.5q0 81 -46.5 132t-159.5 95q-222 81 -329.5 180.5t-107.5 280.5q0 168 107.5 275.5t289.5 126.5v215h159v-217q176 -26 276.5 -147t98.5 -314l-3 -5h-285q0 118 -48.5 182t-132.5 64 q-86 0 -128 -49.5t-42 -131.5q0 -78 44.5 -126.5t163.5 -95.5q221 -87 327.5 -186t106.5 -277q0 -174 -107 -278t-291 -123v-198h-159v197q-187 19 -309 132.5t-118 333.5z" />
<glyph unicode="%" horiz-adv-x="1513" d="M95 1099v77q0 129 83.5 215t232.5 86q151 0 234 -85.5t83 -215.5v-77q0 -129 -83 -214t-232 -85q-150 0 -234 85t-84 214zM289 1099q0 -58 32 -97.5t92 -39.5q58 0 89.5 39.5t31.5 97.5v77q0 58 -32 98.5t-91 40.5t-90.5 -40.5t-31.5 -98.5v-77zM319 184l711 1138 l142 -75l-711 -1138zM791 280v77q0 128 84 214t233 86q150 0 233.5 -85.5t83.5 -214.5v-77q0 -130 -83 -215t-232 -85q-150 0 -234.5 85.5t-84.5 214.5zM985 280q0 -57 34.5 -97.5t90.5 -40.5q65 0 93 37.5t28 100.5v77q0 57 -32 97.5t-91 40.5q-60 0 -91.5 -40.5 t-31.5 -97.5v-77z" />
<glyph unicode="&#x26;" horiz-adv-x="1346" d="M61 392q0 118 65 203.5t198 178.5q-68 92 -101.5 168t-33.5 155q0 173 108 276.5t289 103.5q159 0 258.5 -98.5t99.5 -238.5q0 -98 -49 -179t-134 -142l-93 -66l276 -322q36 60 56 130t20 148h218q0 -138 -34 -254t-104 -206l208 -244l-2 -5h-324l-77 89 q-85 -55 -175 -82.5t-193 -27.5q-218 0 -347 114.5t-129 298.5zM353 407q0 -89 55 -146.5t144 -57.5q53 0 106 13.5t102 40.5l-300 348l-19 -13q-51 -48 -69.5 -93.5t-18.5 -91.5zM450 1100q0 -43 21.5 -88.5t64.5 -100.5l86 56q56 36 75.5 74t19.5 83q0 50 -36.5 89 t-95.5 39q-65 0 -100 -43.5t-35 -108.5z" />
<glyph unicode="'" horiz-adv-x="330" d="M50 1008v552h230v-269l-102 -283h-128z" />
<glyph unicode="(" horiz-adv-x="711" d="M124 570v22q0 392 152 665.5t344 354.5h6l53 -146q-131 -98 -220 -316t-89 -556v-26q0 -339 89 -556.5t220 -318.5l-53 -143h-6q-192 81 -344 354t-152 666z" />
<glyph unicode=")" horiz-adv-x="713" d="M31 -307q129 98 219 317t90 558v26q0 336 -91 556.5t-218 319.5l54 142h6q194 -80 352.5 -359t158.5 -661v-22q0 -383 -158.5 -661.5t-352.5 -358.5h-6z" />
<glyph unicode="*" horiz-adv-x="908" d="M27 1055l57 177l297 -123l-18 347h187l-19 -353l291 120l56 -180l-306 -89l200 -265l-152 -110l-174 290l-173 -281l-153 106l209 272z" />
<glyph unicode="+" horiz-adv-x="1117" d="M56 560v252h362v394h276v-394h360v-252h-360v-414h-276v414h-362z" />
<glyph unicode="," horiz-adv-x="528" d="M63 -302l70 324v228h284v-237l-159 -315h-195z" />
<glyph unicode="-" horiz-adv-x="801" d="M113 510v225h564v-225h-564z" />
<glyph unicode="." horiz-adv-x="596" d="M144 0v256h292v-256h-292z" />
<glyph unicode="/" horiz-adv-x="825" d="M-14 -125l534 1581h284l-534 -1581h-284z" />
<glyph unicode="0" horiz-adv-x="1175" d="M95 567v321q0 288 132.5 438.5t359.5 150.5q226 0 359.5 -150.5t133.5 -438.5v-321q0 -289 -132.5 -438.5t-358.5 -149.5q-228 0 -361 149.5t-133 438.5zM386 539q0 -176 51.5 -256t151.5 -80q98 0 149 80t51 256v379q0 173 -52 253.5t-150 80.5q-99 0 -150 -80t-51 -254 v-379z" />
<glyph unicode="1" horiz-adv-x="1175" d="M171 1198v206l588 52v-1456h-292v1198h-296z" />
<glyph unicode="2" horiz-adv-x="1175" d="M76 1007q-5 197 129.5 333.5t362.5 136.5q225 0 353.5 -117t128.5 -312q0 -132 -72.5 -243.5t-239.5 -292.5l-259 -283l2 -5h612v-224h-994v191l471 505q102 117 145 197.5t43 149.5q0 92 -49.5 150.5t-140.5 58.5q-101 0 -153.5 -68.5t-52.5 -182.5h-284z" />
<glyph unicode="3" horiz-adv-x="1175" d="M70 390l2 6h283q0 -84 60 -138.5t152 -54.5q101 0 159.5 56t58.5 152q0 115 -57.5 168.5t-169.5 53.5h-164v219h164q104 0 154 54.5t50 151.5q0 88 -50 141t-145 53q-82 0 -138 -48t-56 -126h-283l-2 6q-6 171 131 282t340 111q226 0 360.5 -108t134.5 -308 q0 -95 -60 -180.5t-165 -133.5q121 -43 184.5 -132t63.5 -207q0 -200 -145.5 -314.5t-372.5 -114.5q-203 0 -348.5 107.5t-140.5 303.5z" />
<glyph unicode="4" horiz-adv-x="1175" d="M57 491l604 965h294v-914h165v-226h-165v-316h-291v316h-594zM329 542h335v524l-6 2l-23 -41z" />
<glyph unicode="5" horiz-adv-x="1175" d="M110 390l2 5l281 14q0 -97 55 -151.5t144 -54.5q102 0 150.5 72.5t48.5 189.5q0 126 -52 202t-154 76q-84 0 -128.5 -31t-63.5 -84l-257 17l84 811h812v-234h-573l-40 -336q40 30 97 49.5t126 20.5q210 3 325.5 -127t115.5 -362q0 -210 -126.5 -349t-364.5 -139 q-201 0 -344 109.5t-138 301.5z" />
<glyph unicode="6" horiz-adv-x="1175" d="M99 569v284q0 286 165 455t420 169q82 0 151.5 -15.5t139.5 -45.5l-52 -214q-66 23 -117.5 34.5t-119.5 11.5q-133 0 -213.5 -99.5t-74.5 -275.5l3 -5q49 51 124 80t169 29q195 0 305.5 -138.5t110.5 -353.5q0 -220 -136.5 -363t-353.5 -143q-231 0 -376 156.5 t-145 433.5zM391 562q0 -173 62.5 -266t166.5 -93q90 0 144.5 82.5t54.5 199.5q0 121 -55 196t-147 75q-81 0 -138 -26t-88 -71v-97z" />
<glyph unicode="7" horiz-adv-x="1175" d="M60 1231v225h1029v-225q-234 -274 -319.5 -511t-122.5 -572l-14 -148h-292l14 148q34 321 146 589.5t307 493.5h-748z" />
<glyph unicode="8" horiz-adv-x="1175" d="M91 398q0 118 66.5 208.5t183.5 140.5q-102 47 -159 130.5t-57 192.5q0 194 127 300.5t335 106.5q207 0 335 -106.5t128 -300.5q0 -109 -57.5 -193t-158.5 -131q116 -49 183 -140t67 -208q0 -202 -137 -310.5t-358 -108.5q-223 0 -360.5 108.5t-137.5 310.5zM384 418 q0 -100 56 -157.5t149 -57.5q91 0 147 58t56 157q0 98 -57 157t-148 59q-92 0 -147.5 -59t-55.5 -157zM417 1057q0 -91 45.5 -144.5t126.5 -53.5q79 0 124.5 53.5t45.5 144.5q0 88 -46.5 141.5t-125.5 53.5q-80 0 -125 -52.5t-45 -142.5z" />
<glyph unicode="9" horiz-adv-x="1175" d="M82 970q0 218 138 362.5t351 144.5q223 0 362 -153.5t139 -431.5v-344q0 -265 -155.5 -417t-396.5 -152q-76 0 -156.5 15.5t-149.5 45.5l34 211q65 -25 128.5 -36.5t143.5 -11.5q115 0 187.5 85.5t72.5 244.5v72q-49 -62 -116.5 -94t-145.5 -32q-203 0 -319.5 132.5 t-116.5 358.5zM373 970q0 -124 50.5 -200.5t143.5 -76.5q72 0 126 27t87 72v134q0 160 -56 243t-152 83q-88 0 -143.5 -82t-55.5 -200z" />
<glyph unicode=":" horiz-adv-x="582" d="M144 0v256h292v-256h-292zM144 876v256h292v-256h-292z" />
<glyph unicode=";" horiz-adv-x="562" d="M114 -302l70 324v228h284v-237l-159 -315h-195zM145 876v256h292v-256h-292z" />
<glyph unicode="&#x3c;" horiz-adv-x="1043" d="M54 436v227l862 366v-272l-577 -207v-6l577 -203v-272z" />
<glyph unicode="=" horiz-adv-x="1181" d="M136 332v229h896v-229h-896zM136 763v229h896v-229h-896z" />
<glyph unicode="&#x3e;" horiz-adv-x="1058" d="M119 69v270l586 209v6l-586 206v269l872 -366v-227z" />
<glyph unicode="?" horiz-adv-x="1021" d="M32 1081q-3 192 126.5 294t337.5 102q224 0 351.5 -113.5t127.5 -308.5q0 -127 -74.5 -235t-186.5 -181q-61 -47 -80 -94.5t-19 -130.5h-291q1 140 41.5 205t161.5 158q71 58 113.5 125t42.5 150q0 92 -48.5 144t-138.5 52q-74 0 -125.5 -44t-52.5 -129h-284zM323 0v250 h294v-250h-294z" />
<glyph unicode="@" horiz-adv-x="1817" d="M66 478q18 427 255.5 683.5t625.5 256.5q387 0 593 -242.5t190 -662.5q-9 -218 -128 -376t-356 -158q-78 0 -135 44t-81 123q-44 -82 -109.5 -123t-153.5 -41q-141 0 -216.5 119t-55.5 315q25 254 143.5 407t287.5 153q116 0 186.5 -26t154.5 -80l-3 -4h5l-51 -573 q-7 -95 14 -130t57 -35q115 0 184.5 109t77.5 276q16 353 -136.5 551t-471.5 198q-303 0 -484 -213t-196 -571q-17 -355 146 -560t469 -205q85 0 175.5 20t155.5 50l38 -147q-67 -42 -170.5 -65.5t-202.5 -23.5q-396 0 -610.5 249t-197.5 682zM720 416q-10 -127 18.5 -192.5 t92.5 -65.5q56 0 101.5 26t81.5 96v6.5t1 6.5l44 496q-23 7 -46 11t-48 4q-111 0 -169 -96.5t-76 -291.5z" />
<glyph unicode="A" horiz-adv-x="1311" d="M12 0l501 1456h299l499 -1456h-295l-99 314h-511l-99 -314h-295zM478 543h367l-180 572h-6z" />
<glyph unicode="B" horiz-adv-x="1314" d="M136 0v1456h492q257 0 401 -100t144 -299q0 -101 -53.5 -180.5t-155.5 -119.5q131 -28 196.5 -120t65.5 -213q0 -209 -138 -316.5t-391 -107.5h-561zM428 224h269q116 0 177 50.5t61 149.5q0 107 -52 163.5t-164 56.5h-291v-420zM428 846h210q117 0 180 48t63 140 q0 101 -63.5 149t-189.5 48h-200v-385z" />
<glyph unicode="C" horiz-adv-x="1309" d="M93 583v289q0 265 160 435t416 170q270 -1 422 -139q148 -135 148 -365v-12l-2 -6h-284q0 144 -69 220.5t-215 76.5q-131 0 -208 -106.5t-77 -271.5v-291q0 -167 81 -273.5t219 -106.5q137 0 202.5 73.5t65.5 218.5h283l2 -6v-12q1 -227 -143 -361q-148 -138 -410 -137 q-263 0 -427 169t-164 435z" />
<glyph unicode="D" horiz-adv-x="1342" d="M136 0v1456h500q267 0 440 -170.5t173 -437.5v-241q0 -268 -173 -437.5t-440 -169.5h-500zM428 224h193q157 0 246 106t89 277v243q0 169 -89 275t-246 106h-193v-1007z" />
<glyph unicode="E" horiz-adv-x="1176" d="M136 0v1456h995v-225h-703v-366h603v-225h-603v-416h705v-224h-997z" />
<glyph unicode="F" horiz-adv-x="1182" d="M136 0v1456h1004v-225h-712v-401h610v-225h-610v-605h-292z" />
<glyph unicode="G" horiz-adv-x="1369" d="M99 576v304q0 264 162.5 430.5t418.5 166.5q266 0 407.5 -129.5t144.5 -340.5l-2 -6h-275q-8 116 -74 183.5t-193 67.5q-134 0 -216 -103.5t-82 -266.5v-306q0 -166 85 -269.5t229 -103.5q102 0 164 21t94 52v270h-258v202h550v-549q-65 -86 -202.5 -153t-347.5 -67 q-267 0 -436 166t-169 431z" />
<glyph unicode="H" horiz-adv-x="1450" d="M136 0v1456h292v-626h594v626h291v-1456h-291v605h-594v-605h-292z" />
<glyph unicode="I" horiz-adv-x="601" d="M154 0v1456h292v-1456h-292z" />
<glyph unicode="J" horiz-adv-x="1169" d="M63 417l2 6h284q0 -115 55 -167.5t148 -52.5q81 0 137.5 62.5t56.5 171.5v1019h291v-1019q0 -211 -137.5 -334.5t-347.5 -123.5q-228 0 -361 111q-128 107 -128 311v16z" />
<glyph unicode="K" horiz-adv-x="1323" d="M136 0v1456h292v-595h127l386 595h357l-490 -678l529 -778h-356l-391 608h-162v-608h-292z" />
<glyph unicode="L" horiz-adv-x="1108" d="M136 0v1456h292v-1232h648v-224h-940z" />
<glyph unicode="M" horiz-adv-x="1787" d="M136 0v1456h381l371 -1073h6l374 1073h382v-1456h-292v434l28 643l-6 1l-390 -1078h-196l-388 1074l-6 -1l28 -639v-434h-292z" />
<glyph unicode="N" horiz-adv-x="1450" d="M136 0v1456h292l588 -994l6 1v993h291v-1456h-291l-588 995l-6 -1v-994h-292z" />
<glyph unicode="O" horiz-adv-x="1399" d="M92 597v262q0 267 167.5 442.5t436.5 175.5q271 0 441 -175.5t170 -442.5v-262q0 -268 -169.5 -443t-440.5 -175q-269 0 -437 175t-168 443zM383 597q0 -173 83 -282t231 -109q150 0 234 109t84 282v264q0 170 -85 279t-234 109t-231 -108.5t-82 -279.5v-264z" />
<glyph unicode="P" horiz-adv-x="1334" d="M136 0v1456h580q251 0 395 -128t144 -337t-144 -336t-395 -127h-288v-528h-292zM428 753h288q122 0 185 66.5t63 169.5q0 105 -62.5 173.5t-185.5 68.5h-288v-478z" />
<glyph unicode="Q" horiz-adv-x="1433" d="M92 597v262q0 267 167.5 442.5t436.5 175.5q271 0 441 -175.5t170 -442.5v-262q0 -132 -43 -244.5t-123 -195.5l241 -236l-191 -156l-262 254q-54 -19 -112 -29.5t-120 -10.5q-269 0 -437 175t-168 443zM383 597q0 -173 83 -282t231 -109q150 0 234 109t84 282v264 q0 170 -85 279t-234 109t-231 -108.5t-82 -279.5v-264z" />
<glyph unicode="R" horiz-adv-x="1354" d="M136 0v1456h549q249 0 389.5 -113.5t140.5 -316.5q0 -113 -59 -194t-173 -131q129 -38 185.5 -127t56.5 -220v-107q0 -61 16.5 -127.5t56.5 -98.5v-21h-301q-40 32 -52 107t-12 142v103q0 109 -59.5 169.5t-167.5 60.5h-278v-582h-292zM428 807h252q123 0 183.5 52 t60.5 154q0 100 -60.5 159t-178.5 59h-257v-424z" />
<glyph unicode="S" horiz-adv-x="1299" d="M90 445l2 6h284q0 -130 79.5 -190.5t221.5 -60.5q119 0 182 49t63 131q0 84 -59.5 135t-208.5 96q-260 75 -393 178t-133 282t152.5 292.5t389.5 113.5q240 1 391 -127q146 -123 146 -303v-12l-2 -6h-283q0 101 -67.5 163.5t-189.5 62.5q-117 0 -181 -52t-64 -133 q0 -74 68.5 -121.5t236.5 -100.5q241 -67 365 -177t124 -289q0 -187 -147.5 -295t-389.5 -108q-238 1 -415 123q-172 119 -172 331v12z" />
<glyph unicode="T" horiz-adv-x="1169" d="M28 1231v225h1114v-225h-412v-1231h-292v1231h-410z" />
<glyph unicode="U" horiz-adv-x="1407" d="M120 490v966h293v-966q0 -144 77 -215.5t212 -71.5q137 0 215 71t78 216v966h293v-966q0 -245 -162 -378t-424 -133q-261 0 -421.5 133t-160.5 378z" />
<glyph unicode="V" horiz-adv-x="1303" d="M7 1456h308l315 -1069l18 -79h6l17 77l317 1071h308l-495 -1456h-300z" />
<glyph unicode="W" horiz-adv-x="1815" d="M24 1456h286l209 -997l6 -1l273 998h215l275 -998h6l208 998h285l-340 -1456h-271l-267 961h-6l-267 -961h-271z" />
<glyph unicode="X" horiz-adv-x="1303" d="M31 0l443 734l-432 722h338l269 -516l273 516h340l-432 -722l457 -734h-353l-281 525l-281 -525h-341z" />
<glyph unicode="Y" horiz-adv-x="1292" d="M5 1456h320l318 -671h6l318 671h320l-500 -944v-512h-291v527z" />
<glyph unicode="Z" horiz-adv-x="1206" d="M77 0v152l692 1079h-691v225h1047v-146l-695 -1086h712v-224h-1065z" />
<glyph unicode="[" horiz-adv-x="570" d="M119 -336v2027h434v-216h-141v-1595h141v-216h-434z" />
<glyph unicode="\" horiz-adv-x="863" d="M2 1456h289l608 -1581h-289z" />
<glyph unicode="]" horiz-adv-x="570" d="M13 -120h142v1595h-142v216h434v-2027h-434v216z" />
<glyph unicode="^" horiz-adv-x="896" d="M44 729l299 727h212l299 -727h-231l-165 413l-8 34h-6l-7 -34l-162 -413h-231z" />
<glyph unicode="_" horiz-adv-x="914" d="M1 0h910v-219h-910v219z" />
<glyph unicode="`" horiz-adv-x="678" d="M77 1472l2 6h309l197 -266h-237z" />
<glyph unicode="a" horiz-adv-x="1100" d="M55 305q0 159 122.5 246.5t357.5 87.5h163v86q0 78 -41 121t-121 43q-71 0 -109.5 -34.5t-38.5 -95.5l-282 1l-1 6v14q0 128 119 222q126 100 331 100q194 0 315 -98.5t121 -280.5v-447q0 -76 11.5 -143t36.5 -133h-292q-16 37 -27.5 78t-16.5 84q-45 -79 -118.5 -131 t-175.5 -52q-170 0 -262 87.5t-92 238.5zM346 315q0 -54 36 -87t98 -33q77 0 137 38t81 88v153h-163q-93 0 -141 -46.5t-48 -112.5z" />
<glyph unicode="b" d="M112 0v1560h291v-593q47 65 112.5 100t150.5 35q206 0 314 -155.5t108 -414.5v-21q0 -242 -108 -387t-312 -145q-94 0 -164.5 39.5t-119.5 115.5l-22 -134h-250zM403 307q27 -49 74.5 -75t116.5 -26q113 0 158 79.5t45 225.5v21q0 158 -46.5 250.5t-158.5 92.5 q-68 0 -115 -28.5t-74 -81.5v-458z" />
<glyph unicode="c" horiz-adv-x="1060" d="M62 525v30q0 239 130.5 393t372.5 154q201 0 323 -114q119 -110 118 -288v-12l-2 -6h-266q0 84 -46 139.5t-127 55.5q-116 0 -163.5 -90t-47.5 -232v-30q0 -145 47.5 -233.5t164.5 -88.5q78 0 125 45.5t47 121.5h265l3 -6v-10q0 -156 -124 -264q-128 -110 -316 -111 q-242 0 -373 153t-131 393z" />
<glyph unicode="d" d="M67 511v21q0 256 110.5 413t311.5 157q81 0 146 -35t114 -100v593h293v-1560h-251l-24 132q-51 -75 -120.5 -114t-159.5 -39q-199 0 -309.5 146t-110.5 386zM358 511q0 -142 48 -223.5t156 -81.5q63 0 110 25.5t77 74.5v461q-30 51 -76.5 79.5t-108.5 28.5 q-107 0 -156.5 -95t-49.5 -248v-21z" />
<glyph unicode="e" horiz-adv-x="1084" d="M77 510v40q1 241 133 397q132 155 352 155h3q219 0 340 -132t121 -357v-159h-646l-2 -6q8 -107 71.5 -176t172.5 -69q97 0 161 19.5t140 61.5l79 -180q-66 -54 -173 -89.5t-238 -35.5q-234 0 -374 150t-140 381zM379 652l3 -5h358v26q0 93 -43.5 148.5t-131.5 55.5 q-81 0 -128 -62t-58 -163z" />
<glyph unicode="f" horiz-adv-x="732" d="M27 877v205h161v120q0 182 105 280.5t295 98.5q37 0 75.5 -5.5t84.5 -15.5l-25 -217q-24 4 -46.5 7t-52.5 3q-71 0 -107.5 -39t-36.5 -112v-120h215v-205h-215v-877h-292v877h-161z" />
<glyph unicode="g" d="M67 511v21q0 256 111.5 413t312.5 157q91 0 160 -41t118 -117l23 138h252v-1077q0 -211 -138.5 -326.5t-385.5 -115.5q-82 0 -174 22.5t-170 61.5l54 218q67 -32 136.5 -48.5t151.5 -16.5q120 0 176.5 50t56.5 156v98q-48 -61 -113 -93t-149 -32q-199 0 -310.5 146.5 t-111.5 385.5zM359 511q0 -142 48 -223.5t156 -81.5q67 0 113.5 24.5t74.5 71.5v470q-28 49 -74.5 76t-111.5 27q-107 0 -156.5 -95t-49.5 -248v-21z" />
<glyph unicode="h" d="M105 0v1560h292v-615q51 74 125 115.5t164 41.5q169 0 265.5 -112.5t96.5 -347.5v-642h-292v644q0 126 -44.5 178.5t-132.5 52.5q-60 0 -106 -21.5t-76 -60.5v-793h-292z" />
<glyph unicode="i" horiz-adv-x="547" d="M127 0v1082h292v-1082h-292zM127 1341v219h292v-219h-292z" />
<glyph unicode="j" horiz-adv-x="543" d="M-98 -420l14 223q23 -6 46 -9t49 -3q59 0 91 41.5t32 127.5v1122h293v-1122q0 -190 -101 -293.5t-281 -103.5q-40 0 -73 4t-70 13zM128 1343v217h293v-217h-293z" />
<glyph unicode="k" horiz-adv-x="1097" d="M112 0v1560h292v-885h72l251 407h338l-346 -490l399 -592h-335l-299 453h-80v-453h-292z" />
<glyph unicode="l" horiz-adv-x="547" d="M127 0v1560h292v-1560h-292z" />
<glyph unicode="m" horiz-adv-x="1772" d="M112 0v1082h271l12 -143q52 78 130.5 120.5t181.5 42.5q104 0 178 -46t112 -139q50 87 130 136t188 49q160 0 252.5 -110.5t92.5 -336.5v-655h-292v656q0 123 -40 171t-119 48q-62 0 -107.5 -27.5t-72.5 -76.5q0 -19 1 -32.5t1 -27.5v-711h-291v656q0 120 -40 169.5 t-120 49.5q-59 0 -103.5 -22.5t-73.5 -63.5v-789h-291z" />
<glyph unicode="n" d="M107 0v1082h272l13 -155q54 83 133 129t177 46q164 0 256 -103t92 -323v-676h-293v675q0 109 -44 154.5t-133 45.5q-58 0 -104 -23.5t-77 -66.5v-785h-292z" />
<glyph unicode="o" d="M67 530v21q0 242 135 396.5t374 154.5q240 0 376 -154t136 -397v-21q0 -244 -135.5 -397.5t-374.5 -153.5q-240 0 -375.5 153.5t-135.5 397.5zM358 530q0 -148 52 -237.5t168 -89.5q113 0 165.5 90t52.5 237v21q0 144 -53 235t-167 91q-113 0 -165.5 -91.5t-52.5 -234.5 v-21z" />
<glyph unicode="p" d="M112 -416v1498h263l17 -128q48 71 115.5 109.5t157.5 38.5q201 0 312 -157t111 -413v-21q0 -240 -111 -386t-310 -146q-85 0 -151 31.5t-113 92.5v-519h-291zM403 297q27 -46 73.5 -70t114.5 -24q106 0 155.5 83t49.5 225v21q0 153 -51 248t-156 95q-66 0 -112.5 -27 t-73.5 -77v-474z" />
<glyph unicode="q" d="M67 511v21q0 256 110.5 413t311.5 157q90 0 158 -39.5t117 -113.5l27 133h248v-1498h-292v517q-48 -60 -112.5 -91t-147.5 -31q-199 0 -309.5 146t-110.5 386zM358 511q0 -142 48 -225t156 -83q64 0 110 24t75 70v480q-29 48 -74.5 74t-108.5 26q-107 0 -156.5 -96 t-49.5 -249v-21z" />
<glyph unicode="r" horiz-adv-x="717" d="M112 0v1082h271l13 -160q38 85 98.5 132.5t139.5 47.5q22 0 40.5 -3.5t37.5 -8.5l-31 -259l-107 3q-65 0 -107 -27t-64 -76v-731h-291z" />
<glyph unicode="s" horiz-adv-x="1056" d="M64 338l2 6h267q3 -87 57 -126t141 -39q81 0 123.5 32t42.5 87q0 48 -46.5 83t-172.5 62q-192 39 -289.5 115.5t-97.5 208.5q0 140 117.5 237.5t314.5 97.5q207 0 329 -97q118 -93 118 -233v-12l-2 -6h-282q0 65 -41.5 106t-121.5 41q-71 0 -111.5 -34.5t-40.5 -86.5 q0 -50 42.5 -82t172.5 -57q200 -40 297 -117.5t97 -213.5q0 -146 -125 -238.5t-330 -92.5q-215 -1 -341 109q-120 105 -120 237v13z" />
<glyph unicode="t" horiz-adv-x="715" d="M9 877v205h158v265h292v-265h182v-205h-182v-551q0 -63 26 -90t70 -27q23 0 39.5 2.5t38.5 8.5l25 -211q-44 -15 -86 -22.5t-91 -7.5q-151 0 -232.5 83t-81.5 263v552h-158z" />
<glyph unicode="u" d="M105 429v653h291v-655q0 -118 40 -169.5t118 -51.5q70 0 120 22.5t82 66.5v787h292v-1082h-249l-26 156q-50 -85 -127 -131t-177 -46q-171 0 -267.5 109.5t-96.5 340.5z" />
<glyph unicode="v" horiz-adv-x="1046" d="M16 1082h305l182 -679l19 -100h6l20 100l178 679h305l-368 -1082h-279z" />
<glyph unicode="w" horiz-adv-x="1507" d="M29 1082h274l143 -693h6l202 693h195l204 -695h6l141 695h274l-275 -1082h-244l-201 644h-6l-201 -644h-243z" />
<glyph unicode="x" horiz-adv-x="1046" d="M19 0l337 547l-327 535h328l162 -344h6l166 344h330l-326 -535l337 -547h-329l-177 359l-177 -359h-330z" />
<glyph unicode="y" horiz-adv-x="1046" d="M5 1082h314l183 -628l12 -60h6l207 688h314l-439 -1244q-46 -116 -125 -195.5t-237 -79.5q-37 0 -68.5 6t-76.5 17l34 213q13 -2 28 -4t27 -2q72 0 111 35.5t60 88.5l34 84z" />
<glyph unicode="z" horiz-adv-x="1046" d="M75 0v172l515 684h-499v226h866v-167l-519 -691h536v-224h-899z" />
<glyph unicode="{" horiz-adv-x="676" d="M48 518v201q90 0 133.5 54.5t43.5 155.5v203q0 171 82.5 290.5t277.5 174.5l56 -157q-85 -31 -120 -110.5t-35 -197.5v-203q0 -104 -44.5 -184.5t-134.5 -125.5q90 -47 134.5 -127.5t44.5 -182.5v-203q0 -118 35 -197.5t120 -110.5l-56 -158q-195 55 -277.5 175 t-82.5 291v203q0 99 -43.5 154t-133.5 55z" />
<glyph unicode="|" horiz-adv-x="519" d="M173 -270v1726h176v-1726h-176z" />
<glyph unicode="}" horiz-adv-x="676" d="M34 -202q85 31 120 110.5t35 197.5v203q0 104 46 184t140 125q-94 45 -140 125.5t-46 185.5v203q0 118 -35 197.5t-120 110.5l56 157q194 -55 277 -174.5t83 -290.5v-203q0 -101 43 -155.5t135 -54.5v-201q-92 0 -135 -55t-43 -154v-203q0 -171 -83 -291t-277 -175z" />
<glyph unicode="~" horiz-adv-x="1327" d="M105 448q0 162 86.5 269.5t223.5 107.5q83 0 158.5 -33.5t151.5 -99.5q49 -45 86.5 -64.5t81.5 -19.5q50 0 87 52t37 125l203 -27q0 -161 -88.5 -270.5t-223.5 -109.5q-85 0 -157 31.5t-150 101.5q-52 44 -89.5 64t-81.5 20q-52 0 -87.5 -51t-35.5 -122z" />
<glyph unicode="&#xa1;" horiz-adv-x="580" d="M142 -374v953h292v-953h-292zM142 825v257h292v-257h-292z" />
<glyph unicode="&#xa2;" horiz-adv-x="1181" d="M72 525v30q0 218 110.5 367.5t317.5 174.5v221h200v-229q148 -34 235 -141.5t87 -265.5h-274q0 84 -46 139.5t-127 55.5q-116 0 -163.5 -90t-47.5 -232v-30q0 -145 47.5 -233.5t164.5 -88.5q78 0 125 45.5t47 121.5h267l2 -5q3 -135 -85.5 -237t-231.5 -135v-238h-200 v229q-207 23 -317.5 172.5t-110.5 368.5z" />
<glyph unicode="&#xa3;" horiz-adv-x="1216" d="M92 588v225h155l-8 214q0 210 120.5 330t322.5 120q215 0 333.5 -111.5t114.5 -294.5l-2 -6h-284q0 96 -46 141.5t-117 45.5q-70 0 -110 -58.5t-40 -166.5l10 -214h355v-225h-345l4 -85q0 -78 -30 -150t-86 -129h713v-224h-996v224h10q47 12 70.5 95t23.5 171l-4 98h-164 z" />
<glyph unicode="&#xa4;" horiz-adv-x="1417" d="M80 118l135 137q-49 76 -74.5 165.5t-25.5 187.5q0 101 28 194t81 171l-144 147l141 144l142 -145q74 55 162.5 85t185.5 30q96 0 185 -30.5t164 -86.5l144 148l142 -145l-148 -151q51 -78 79 -169.5t28 -191.5q0 -97 -25.5 -185.5t-72.5 -163.5l139 -141l-142 -145 l-132 134q-77 -62 -169 -94.5t-192 -32.5q-101 0 -193.5 32.5t-167.5 93.5l-129 -132zM301 608q0 -185 119 -312t291 -127q170 0 289.5 127.5t119.5 311.5q0 183 -119.5 310t-289.5 127q-172 0 -291 -127t-119 -310z" />
<glyph unicode="&#xa5;" horiz-adv-x="1253" d="M22 1456h321l280 -608h6l281 608h320l-382 -714h244v-200h-324v-110h324v-200h-324v-232h-292v232h-339v200h339v110h-339v200h267z" />
<glyph unicode="&#xa6;" horiz-adv-x="517" d="M127 -270v795h262v-795h-262zM127 698v758h262v-758h-262z" />
<glyph unicode="&#xa7;" horiz-adv-x="1287" d="M94 536q0 89 42 158t121 113q-69 50 -103 120.5t-34 168.5q0 172 141.5 276.5t378.5 104.5q243 0 380.5 -111t132.5 -311l-2 -6h-283q0 88 -60 145.5t-168 57.5q-114 0 -171 -43.5t-57 -110.5q0 -75 55.5 -113.5t232.5 -86.5q247 -64 363.5 -157.5t116.5 -265.5 q0 -91 -42 -159t-121 -111q68 -51 102.5 -121t34.5 -168q0 -177 -140 -277t-377 -100q-232 0 -387.5 99.5t-150.5 317.5l2 6l283 1q0 -106 72.5 -152t180.5 -46q107 0 166.5 41.5t59.5 108.5t-61 107.5t-230 90.5q-244 64 -361 157.5t-117 265.5zM385 562q0 -80 55.5 -121.5 t232.5 -93.5q34 -10 68.5 -20t69.5 -21q39 22 60.5 59t21.5 85q0 71 -62 116t-232 97q-40 10 -74 21t-65 22q-38 -22 -56.5 -59t-18.5 -85z" />
<glyph unicode="&#xa8;" horiz-adv-x="1090" d="M156 1252v204h266v-204h-266zM656 1252v204h266v-204h-266z" />
<glyph unicode="&#xa9;" horiz-adv-x="1606" d="M86 729q0 315 207 531t503 216q295 0 502.5 -216t207.5 -531q0 -316 -208 -533t-502 -217q-296 0 -503 217t-207 533zM208 729q0 -264 171.5 -444.5t416.5 -180.5q244 0 415.5 180.5t171.5 444.5q0 263 -171.5 442.5t-415.5 179.5q-246 0 -417 -179.5t-171 -442.5z M433 669v119q0 173 94.5 280t254.5 107q157 0 245.5 -79.5t84.5 -228.5l-2 -6h-148q0 94 -45 136.5t-135 42.5q-94 0 -144 -69t-50 -182v-120q0 -115 50 -183.5t144 -68.5q90 0 134.5 41.5t44.5 137.5h148l2 -6q4 -151 -84 -229.5t-245 -78.5q-160 0 -254.5 106t-94.5 281z " />
<glyph unicode="&#xaa;" horiz-adv-x="909" d="M112 920q0 111 84.5 171t246.5 60h137v51q0 62 -29.5 94.5t-86.5 32.5q-66 0 -102 -26t-36 -73l-165 13l-1 6q-6 98 79 163t225 65q134 0 212.5 -71t78.5 -205v-314q0 -51 6 -95t20 -86h-177q-8 21 -13 44.5t-8 49.5q-33 -47 -88.5 -77.5t-133.5 -30.5q-119 0 -184 61 t-65 167zM287 924q0 -43 29 -65.5t88 -22.5q51 0 105 30t71 65v103h-136q-74 0 -115.5 -32t-41.5 -78z" />
<glyph unicode="&#xab;" horiz-adv-x="1025" d="M98 507v19l280 390h187l-240 -400l240 -399h-187zM432 507v19l280 390h187l-240 -400l240 -399h-187z" />
<glyph unicode="&#xac;" horiz-adv-x="1129" d="M126 634v171h835v-431h-200v260h-635z" />
<glyph unicode="&#xad;" horiz-adv-x="801" d="M113 510v225h564v-225h-564z" />
<glyph unicode="&#xae;" horiz-adv-x="1606" d="M86 729q0 315 207 531t503 216q295 0 502.5 -216t207.5 -531q0 -316 -208 -533t-502 -217q-296 0 -503 217t-207 533zM208 729q0 -264 171.5 -444.5t416.5 -180.5q244 0 415.5 180.5t171.5 444.5q0 263 -171.5 442.5t-415.5 179.5q-246 0 -417 -179.5t-171 -442.5z M501 316v850h281q151 0 238 -68t87 -194q0 -58 -29 -101.5t-85 -74.5q58 -30 84.5 -84.5t26.5 -128.5v-56q0 -41 3.5 -73.5t13.5 -53.5v-16h-155q-9 21 -11 61.5t-2 82.5v54q0 71 -33.5 105t-109.5 34h-158v-337h-151zM652 787h135q71 0 120.5 30t49.5 86q0 72 -39 101 t-136 29h-130v-246z" />
<glyph unicode="&#xaf;" horiz-adv-x="1028" d="M148 1292v165h731v-165h-731z" />
<glyph unicode="&#xb0;" horiz-adv-x="796" d="M126 1203q0 112 80.5 193t192.5 81q110 0 189 -81t79 -193q0 -113 -79 -192t-189 -79q-113 0 -193 79t-80 192zM273 1203q0 -53 37 -88.5t89 -35.5q51 0 86 35t35 89t-35 91t-86 37q-52 0 -89 -37t-37 -91z" />
<glyph unicode="&#xb1;" horiz-adv-x="1101" d="M90 715v232h333v363h256v-363h327v-232h-327v-383h-256v383h-333zM114 -43v228h834v-228h-834z" />
<glyph unicode="&#xb2;" horiz-adv-x="860" d="M108 1223q-6 106 82.5 181t236.5 75q144 0 223 -65t79 -183q0 -82 -53.5 -144.5t-178.5 -165.5l-109 -93l2 -6h346v-155h-622v155l309 252q60 50 77.5 83.5t17.5 74.5q0 39 -23.5 65.5t-72.5 26.5q-55 0 -83 -30t-28 -77h-201z" />
<glyph unicode="&#xb3;" horiz-adv-x="856" d="M95 893l2 6h201q0 -42 31.5 -65.5t91.5 -23.5q56 0 90 24t34 68q0 50 -35 77t-102 27h-111v133h111q62 0 92 24.5t30 70.5q0 38 -28.5 63.5t-83.5 25.5q-51 0 -79.5 -22t-28.5 -53h-200l-2 6q-6 101 82 162.5t222 61.5q152 0 240.5 -59.5t88.5 -169.5q0 -55 -35.5 -100.5 t-96.5 -70.5q70 -24 107.5 -71.5t37.5 -115.5q0 -112 -89.5 -174t-241.5 -62q-146 0 -240 62.5t-88 175.5z" />
<glyph unicode="&#xb4;" horiz-adv-x="727" d="M108 1212l199 266h309l2 -6l-277 -260h-233z" />
<glyph unicode="&#xb5;" horiz-adv-x="1264" d="M139 -416v1498h291v-620q0 -149 45 -202.5t135 -53.5q75 0 125 27.5t78 79.5v769h292v-1082h-272l-6 67q-44 -43 -100.5 -65.5t-123.5 -22.5q-51 0 -94.5 10.5t-78.5 33.5v-439h-291z" />
<glyph unicode="&#xb6;" horiz-adv-x="1078" d="M61 988q0 207 129.5 337.5t362.5 130.5h375v-1456h-292v520h-83q-233 0 -362.5 129.5t-129.5 338.5z" />
<glyph unicode="&#xb7;" horiz-adv-x="619" d="M159 568v260h292v-260h-292z" />
<glyph unicode="&#xb8;" horiz-adv-x="549" d="M97 -136l31 142h219l-11 -57q64 -11 107 -52t43 -121q0 -107 -91.5 -171t-259.5 -64l-7 161q51 0 81 20.5t30 62.5q0 41 -32 57.5t-110 21.5z" />
<glyph unicode="&#xb9;" horiz-adv-x="573" d="M78 1295v159l338 23v-812h-211v630h-127z" />
<glyph unicode="&#xba;" horiz-adv-x="937" d="M118 1025v117q0 148 94 241.5t252 93.5t252.5 -93.5t94.5 -241.5v-117q0 -149 -94 -241.5t-251 -92.5q-159 0 -253.5 92.5t-94.5 241.5zM293 1025q0 -85 44 -136.5t129 -51.5q82 0 126 51.5t44 136.5v117q0 83 -44.5 135t-127.5 52q-84 0 -127.5 -52t-43.5 -135v-117z " />
<glyph unicode="&#xbb;" horiz-adv-x="1025" d="M102 151l239 399l-239 400h188l280 -390v-19l-280 -390h-188zM448 151l239 399l-239 400h188l280 -390v-19l-280 -390h-188z" />
<glyph unicode="&#xbc;" horiz-adv-x="1493" d="M167 1294v159l338 23v-812h-211v630h-127zM309 192l711 1138l142 -75l-711 -1138zM762 265l424 536h211v-505h101v-157h-101v-139h-211v139h-410zM978 296h208v257l-6 2l-13 -20z" />
<glyph unicode="&#xbd;" horiz-adv-x="1553" d="M167 1294v159l338 23v-812h-211v630h-127zM322 192l711 1138l142 -75l-711 -1138zM919 556q-6 106 82.5 181t236.5 75q144 0 223 -65t79 -183q0 -82 -53.5 -144.5t-178.5 -165.5l-109 -93l2 -6h346v-155h-622v155l309 252q60 50 77.5 83.5t17.5 74.5q0 39 -23.5 65.5 t-72.5 26.5q-55 0 -83 -30t-28 -77h-201z" />
<glyph unicode="&#xbe;" horiz-adv-x="1717" d="M111 894l2 6h201q0 -42 31.5 -65.5t91.5 -23.5q56 0 90 24t34 68q0 50 -35 77t-102 27h-111v133h111q62 0 92 24.5t30 70.5q0 38 -28.5 63.5t-83.5 25.5q-51 0 -79.5 -22t-28.5 -53h-200l-2 6q-6 101 82 162.5t222 61.5q152 0 240.5 -59.5t88.5 -169.5 q0 -55 -35.5 -100.5t-96.5 -70.5q70 -24 107.5 -71.5t37.5 -115.5q0 -112 -89.5 -174t-241.5 -62q-146 0 -240 62.5t-88 175.5zM492 192l711 1138l142 -75l-711 -1138zM951 265l424 536h211v-505h101v-157h-101v-139h-211v139h-410zM1167 296h208v257l-6 2l-13 -20z" />
<glyph unicode="&#xbf;" horiz-adv-x="1037" d="M75 27q0 125 74 233t187 183q60 45 79.5 92.5t19.5 132.5h291q-2 -141 -42.5 -206.5t-159.5 -157.5q-72 -58 -114.5 -125.5t-42.5 -149.5q0 -90 48.5 -142t139.5 -52q73 0 124 43t54 128h283l2 -6q2 -191 -127.5 -292.5t-335.5 -101.5q-226 0 -353 113t-127 308zM433 831 v251h294v-251h-294z" />
<glyph unicode="&#xc0;" horiz-adv-x="1311" d="M12 0l501 1456h299l499 -1456h-295l-99 314h-511l-99 -314h-295zM307 1820l2 6h309l197 -266h-237zM478 543h367l-180 572h-6z" />
<glyph unicode="&#xc1;" horiz-adv-x="1311" d="M12 0l501 1456h299l499 -1456h-295l-99 314h-511l-99 -314h-295zM478 543h367l-180 572h-6zM519 1560l199 266h309l2 -6l-277 -260h-233z" />
<glyph unicode="&#xc2;" horiz-adv-x="1311" d="M12 0l501 1456h299l499 -1456h-295l-99 314h-511l-99 -314h-295zM286 1592v26l282 240h169l287 -243v-23h-232l-140 133l-139 -133h-227zM478 543h367l-180 572h-6z" />
<glyph unicode="&#xc3;" horiz-adv-x="1311" d="M12 0l501 1456h299l499 -1456h-295l-99 314h-511l-99 -314h-295zM281 1644q0 94 59.5 163.5t149.5 69.5q56 0 152 -43.5t148 -43.5q34 0 60 32t26 79l154 -45q0 -96 -59.5 -163.5t-150.5 -67.5q-70 0 -158.5 43.5t-140.5 43.5q-36 0 -60 -32.5t-24 -77.5zM478 543h367 l-180 572h-6z" />
<glyph unicode="&#xc4;" horiz-adv-x="1311" d="M12 0l501 1456h299l499 -1456h-295l-99 314h-511l-99 -314h-295zM272 1601v204h266v-204h-266zM478 543h367l-180 572h-6zM772 1601v204h266v-204h-266z" />
<glyph unicode="&#xc5;" horiz-adv-x="1311" d="M12 0l501 1456h299l499 -1456h-295l-99 314h-511l-99 -314h-295zM444 1739q0 83 61.5 139.5t151.5 56.5q88 0 149 -56.5t61 -139.5q0 -84 -60.5 -138t-149.5 -54q-90 0 -151.5 54t-61.5 138zM478 543h367l-180 572h-6zM560 1739q0 -43 28 -70.5t69 -27.5t67.5 27.5 t26.5 70.5q0 44 -26.5 72t-67.5 28q-42 0 -69.5 -28.5t-27.5 -71.5z" />
<glyph unicode="&#xc6;" horiz-adv-x="1925" d="M3 0l784 1456h1016v-228h-596l16 -366h499v-227h-490l17 -408h616v-227h-898l-14 335h-440l-168 -335h-342zM633 575h310l-23 559l-6 1z" />
<glyph unicode="&#xc7;" horiz-adv-x="1309" d="M93 583v289q0 265 160 435t416 170q270 0 422 -138.5t148 -377.5l-2 -6h-284q0 144 -69 220.5t-215 76.5q-131 0 -208 -106.5t-77 -271.5v-291q0 -167 81 -273.5t219 -106.5q137 0 202.5 73.5t65.5 218.5h283l2 -6q4 -235 -143.5 -372.5t-409.5 -137.5q-263 0 -427 169 t-164 435zM524 -137l31 142h219l-11 -57q64 -11 107 -52t43 -121q0 -107 -91.5 -171t-259.5 -64l-7 161q51 0 81 20.5t30 62.5q0 41 -32 57.5t-110 21.5z" />
<glyph unicode="&#xc8;" horiz-adv-x="1176" d="M136 0v1456h995v-225h-703v-366h603v-225h-603v-416h705v-224h-997zM244 1820l2 6h309l197 -266h-237z" />
<glyph unicode="&#xc9;" horiz-adv-x="1176" d="M136 0v1456h995v-225h-703v-366h603v-225h-603v-416h705v-224h-997zM456 1560l199 266h309l2 -6l-277 -260h-233z" />
<glyph unicode="&#xca;" horiz-adv-x="1176" d="M136 0v1456h995v-225h-703v-366h603v-225h-603v-416h705v-224h-997zM238 1592v26l282 240h169l287 -243v-23h-232l-140 133l-139 -133h-227z" />
<glyph unicode="&#xcb;" horiz-adv-x="1176" d="M136 0v1456h995v-225h-703v-366h603v-225h-603v-416h705v-224h-997zM221 1601v204h266v-204h-266zM721 1601v204h266v-204h-266z" />
<glyph unicode="&#xcc;" horiz-adv-x="601" d="M-58 1820l2 6h309l197 -266h-237zM154 0v1456h292v-1456h-292z" />
<glyph unicode="&#xcd;" horiz-adv-x="601" d="M152 1560l199 266h309l2 -6l-277 -260h-233zM154 0v1456h292v-1456h-292z" />
<glyph unicode="&#xce;" horiz-adv-x="601" d="M-64 1592v26l282 240h169l287 -243v-23h-232l-140 133l-139 -133h-227zM154 0v1456h292v-1456h-292z" />
<glyph unicode="&#xcf;" horiz-adv-x="601" d="M-81 1601v204h266v-204h-266zM154 0v1456h292v-1456h-292zM419 1601v204h266v-204h-266z" />
<glyph unicode="&#xd0;" horiz-adv-x="1372" d="M31 652v181h135v623h500q267 0 440 -170.5t173 -437.5v-241q0 -268 -173 -437.5t-440 -169.5h-500v652h-135zM458 224h193q157 0 246 106t89 277v243q0 169 -89 275t-246 106h-193v-398h244v-181h-244v-428z" />
<glyph unicode="&#xd1;" horiz-adv-x="1450" d="M136 0v1456h292l588 -994l6 1v993h291v-1456h-291l-588 995l-6 -1v-994h-292zM349 1644q0 94 59.5 163.5t149.5 69.5q56 0 152 -43.5t148 -43.5q34 0 60 32t26 79l154 -45q0 -96 -59.5 -163.5t-150.5 -67.5q-70 0 -158.5 43.5t-140.5 43.5q-36 0 -60 -32.5t-24 -77.5z " />
<glyph unicode="&#xd2;" horiz-adv-x="1399" d="M92 597v262q0 267 167.5 442.5t436.5 175.5q271 0 441 -175.5t170 -442.5v-262q0 -268 -169.5 -443t-440.5 -175q-269 0 -437 175t-168 443zM339 1820l2 6h309l197 -266h-237zM383 597q0 -173 83 -282t231 -109q150 0 234 109t84 282v264q0 170 -85 279t-234 109 t-231 -108.5t-82 -279.5v-264z" />
<glyph unicode="&#xd3;" horiz-adv-x="1399" d="M92 597v262q0 267 167.5 442.5t436.5 175.5q271 0 441 -175.5t170 -442.5v-262q0 -268 -169.5 -443t-440.5 -175q-269 0 -437 175t-168 443zM383 597q0 -173 83 -282t231 -109q150 0 234 109t84 282v264q0 170 -85 279t-234 109t-231 -108.5t-82 -279.5v-264zM551 1581 l199 266h309l2 -6l-277 -260h-233z" />
<glyph unicode="&#xd4;" horiz-adv-x="1399" d="M92 597v262q0 267 167.5 442.5t436.5 175.5q271 0 441 -175.5t170 -442.5v-262q0 -268 -169.5 -443t-440.5 -175q-269 0 -437 175t-168 443zM333 1613v26l282 240h169l287 -243v-23h-232l-140 133l-139 -133h-227zM383 597q0 -173 83 -282t231 -109q150 0 234 109t84 282 v264q0 170 -85 279t-234 109t-231 -108.5t-82 -279.5v-264z" />
<glyph unicode="&#xd5;" horiz-adv-x="1399" d="M92 597v262q0 267 167.5 442.5t436.5 175.5q271 0 441 -175.5t170 -442.5v-262q0 -268 -169.5 -443t-440.5 -175q-269 0 -437 175t-168 443zM324 1665q0 94 59.5 163.5t149.5 69.5q56 0 152 -43.5t148 -43.5q34 0 60 32t26 79l154 -45q0 -96 -59.5 -163.5t-150.5 -67.5 q-70 0 -158.5 43.5t-140.5 43.5q-36 0 -60 -32.5t-24 -77.5zM383 597q0 -173 83 -282t231 -109q150 0 234 109t84 282v264q0 170 -85 279t-234 109t-231 -108.5t-82 -279.5v-264z" />
<glyph unicode="&#xd6;" horiz-adv-x="1399" d="M92 597v262q0 267 167.5 442.5t436.5 175.5q271 0 441 -175.5t170 -442.5v-262q0 -268 -169.5 -443t-440.5 -175q-269 0 -437 175t-168 443zM316 1622v204h266v-204h-266zM383 597q0 -173 83 -282t231 -109q150 0 234 109t84 282v264q0 170 -85 279t-234 109t-231 -108.5 t-82 -279.5v-264zM816 1622v204h266v-204h-266z" />
<glyph unicode="&#xd7;" horiz-adv-x="1088" d="M64 371l309 315l-309 315l172 164l303 -310l304 310l172 -164l-309 -315l309 -315l-172 -164l-304 309l-303 -309z" />
<glyph unicode="&#xd8;" horiz-adv-x="1410" d="M92 597v262q0 267 167.5 442.5t436.5 175.5q100 0 188.5 -26.5t162.5 -74.5l83 142h143l-130 -223q79 -83 121.5 -195t42.5 -241v-262q0 -268 -169.5 -443t-440.5 -175q-79 0 -151 16t-133 47l-80 -137h-143l119 204q-104 83 -160.5 209.5t-56.5 278.5zM383 597 q0 -74 15.5 -137.5t45.5 -107.5l6 -1l468 803q-42 45 -98 70t-124 25q-149 0 -231 -108.5t-82 -279.5v-264zM535 251q33 -22 74 -33.5t88 -11.5q150 0 234 109t84 282v264q0 45 -7 87t-18 73l-6 1z" />
<glyph unicode="&#xd9;" horiz-adv-x="1407" d="M120 490v966h293v-966q0 -144 77 -215.5t212 -71.5q137 0 215 71t78 216v966h293v-966q0 -245 -162 -378t-424 -133q-261 0 -421.5 133t-160.5 378zM344 1820l2 6h309l197 -266h-237z" />
<glyph unicode="&#xda;" horiz-adv-x="1407" d="M120 490v966h293v-966q0 -144 77 -215.5t212 -71.5q137 0 215 71t78 216v966h293v-966q0 -245 -162 -378t-424 -133q-261 0 -421.5 133t-160.5 378zM556 1560l199 266h309l2 -6l-277 -260h-233z" />
<glyph unicode="&#xdb;" horiz-adv-x="1407" d="M120 490v966h293v-966q0 -144 77 -215.5t212 -71.5q137 0 215 71t78 216v966h293v-966q0 -245 -162 -378t-424 -133q-261 0 -421.5 133t-160.5 378zM338 1592v26l282 240h169l287 -243v-23h-232l-140 133l-139 -133h-227z" />
<glyph unicode="&#xdc;" horiz-adv-x="1407" d="M120 490v966h293v-966q0 -144 77 -215.5t212 -71.5q137 0 215 71t78 216v966h293v-966q0 -245 -162 -378t-424 -133q-261 0 -421.5 133t-160.5 378zM321 1601v204h266v-204h-266zM821 1601v204h266v-204h-266z" />
<glyph unicode="&#xdd;" horiz-adv-x="1292" d="M5 1456h320l318 -671h6l318 671h320l-500 -944v-512h-291v527zM504 1560l199 266h309l2 -6l-277 -260h-233z" />
<glyph unicode="&#xde;" horiz-adv-x="1247" d="M132 0v1456h292v-270h221q254 0 396 -124t142 -324q0 -201 -142 -325t-396 -124h-221v-289h-292zM424 514h221q123 0 184.5 63.5t61.5 158.5t-61.5 160t-184.5 65h-221v-447z" />
<glyph unicode="&#xdf;" horiz-adv-x="1294" d="M135 0v1101q0 226 129 349t352 123q180 0 299 -95.5t119 -271.5q0 -108 -53.5 -205.5t-53.5 -165.5q0 -56 150 -197.5t150 -281.5q0 -189 -115 -283t-332 -94q-81 0 -160.5 15t-118.5 41l55 223q39 -22 96 -38.5t122 -16.5q76 0 119 38t43 103q0 71 -150 205.5 t-150 276.5q0 90 54.5 190t54.5 175q0 68 -45 113t-103 45q-76 0 -123.5 -67.5t-47.5 -184.5v-1097h-291z" />
<glyph unicode="&#xe0;" horiz-adv-x="1100" d="M55 305q0 159 122.5 246.5t357.5 87.5h163v86q0 78 -41 121t-121 43q-71 0 -109.5 -34.5t-38.5 -95.5l-282 1l-1 6q-7 137 119 236.5t331 99.5q194 0 315 -98.5t121 -280.5v-447q0 -76 11.5 -143t36.5 -133h-292q-16 37 -27.5 78t-16.5 84q-45 -79 -118.5 -131 t-175.5 -52q-170 0 -262 87.5t-92 238.5zM184 1492l2 6h309l197 -266h-237zM346 315q0 -54 36 -87t98 -33q77 0 137 38t81 88v153h-163q-93 0 -141 -46.5t-48 -112.5z" />
<glyph unicode="&#xe1;" horiz-adv-x="1100" d="M55 305q0 159 122.5 246.5t357.5 87.5h163v86q0 78 -41 121t-121 43q-71 0 -109.5 -34.5t-38.5 -95.5l-282 1l-1 6q-7 137 119 236.5t331 99.5q194 0 315 -98.5t121 -280.5v-447q0 -76 11.5 -143t36.5 -133h-292q-16 37 -27.5 78t-16.5 84q-45 -79 -118.5 -131 t-175.5 -52q-170 0 -262 87.5t-92 238.5zM346 315q0 -54 36 -87t98 -33q77 0 137 38t81 88v153h-163q-93 0 -141 -46.5t-48 -112.5zM396 1232l199 266h309l2 -6l-277 -260h-233z" />
<glyph unicode="&#xe2;" horiz-adv-x="1100" d="M55 305q0 159 122.5 246.5t357.5 87.5h163v86q0 78 -41 121t-121 43q-71 0 -109.5 -34.5t-38.5 -95.5l-282 1l-1 6q-7 137 119 236.5t331 99.5q194 0 315 -98.5t121 -280.5v-447q0 -76 11.5 -143t36.5 -133h-292q-16 37 -27.5 78t-16.5 84q-45 -79 -118.5 -131 t-175.5 -52q-170 0 -262 87.5t-92 238.5zM178 1270v26l282 240h169l287 -243v-23h-232l-140 133l-139 -133h-227zM346 315q0 -54 36 -87t98 -33q77 0 137 38t81 88v153h-163q-93 0 -141 -46.5t-48 -112.5z" />
<glyph unicode="&#xe3;" horiz-adv-x="1100" d="M55 305q0 159 122.5 246.5t357.5 87.5h163v86q0 78 -41 121t-121 43q-71 0 -109.5 -34.5t-38.5 -95.5l-282 1l-1 6q-7 137 119 236.5t331 99.5q194 0 315 -98.5t121 -280.5v-447q0 -76 11.5 -143t36.5 -133h-292q-16 37 -27.5 78t-16.5 84q-45 -79 -118.5 -131 t-175.5 -52q-170 0 -262 87.5t-92 238.5zM169 1322q0 94 59.5 163.5t149.5 69.5q56 0 152 -43.5t148 -43.5q34 0 60 32t26 79l154 -45q0 -96 -59.5 -163.5t-150.5 -67.5q-70 0 -158.5 43.5t-140.5 43.5q-36 0 -60 -32.5t-24 -77.5zM346 315q0 -54 36 -87t98 -33q77 0 137 38 t81 88v153h-163q-93 0 -141 -46.5t-48 -112.5z" />
<glyph unicode="&#xe4;" horiz-adv-x="1100" d="M55 305q0 159 122.5 246.5t357.5 87.5h163v86q0 78 -41 121t-121 43q-71 0 -109.5 -34.5t-38.5 -95.5l-282 1l-1 6q-7 137 119 236.5t331 99.5q194 0 315 -98.5t121 -280.5v-447q0 -76 11.5 -143t36.5 -133h-292q-16 37 -27.5 78t-16.5 84q-45 -79 -118.5 -131 t-175.5 -52q-170 0 -262 87.5t-92 238.5zM161 1279v204h266v-204h-266zM346 315q0 -54 36 -87t98 -33q77 0 137 38t81 88v153h-163q-93 0 -141 -46.5t-48 -112.5zM661 1279v204h266v-204h-266z" />
<glyph unicode="&#xe5;" horiz-adv-x="1100" d="M55 305q0 159 122.5 246.5t357.5 87.5h163v86q0 78 -41 121t-121 43q-71 0 -109.5 -34.5t-38.5 -95.5l-282 1l-1 6q-7 137 119 236.5t331 99.5q194 0 315 -98.5t121 -280.5v-447q0 -76 11.5 -143t36.5 -133h-292q-16 37 -27.5 78t-16.5 84q-45 -79 -118.5 -131 t-175.5 -52q-170 0 -262 87.5t-92 238.5zM332 1417q0 83 61.5 139.5t151.5 56.5q88 0 149 -56.5t61 -139.5q0 -84 -60.5 -138t-149.5 -54q-90 0 -151.5 54t-61.5 138zM346 315q0 -54 36 -87t98 -33q77 0 137 38t81 88v153h-163q-93 0 -141 -46.5t-48 -112.5zM448 1417 q0 -43 28 -70.5t69 -27.5t67.5 27.5t26.5 70.5q0 44 -26.5 72t-67.5 28q-42 0 -69.5 -28.5t-27.5 -71.5z" />
<glyph unicode="&#xe6;" horiz-adv-x="1729" d="M46 317q0 159 127 245t370 86h181v59q0 79 -41 124.5t-115 45.5q-81 0 -127 -37.5t-46 -93.5l-283 18l-2 6q-6 144 121.5 238t339.5 94q102 0 186 -27.5t143 -79.5q61 52 142.5 79.5t180.5 27.5q212 0 333 -132t121 -358v-158h-650l-2 -6q4 -112 66 -178.5t186 -66.5 q92 0 154 20t140 61l77 -184q-62 -48 -169 -84.5t-233 -36.5q-129 0 -229.5 40.5t-167.5 116.5q-60 -68 -161.5 -112.5t-240.5 -44.5q-192 0 -296.5 90.5t-104.5 247.5zM338 313q0 -59 41.5 -93.5t123.5 -34.5q58 0 121 30.5t100 72.5v176h-179q-98 0 -152.5 -44t-54.5 -107 zM1027 649l2 -5h362v28q0 94 -42.5 149.5t-125.5 55.5q-95 0 -142 -61.5t-54 -166.5z" />
<glyph unicode="&#xe7;" horiz-adv-x="1060" d="M62 525v30q0 239 130.5 393t372.5 154q200 0 322.5 -114t118.5 -300l-2 -6h-266q0 84 -46 139.5t-127 55.5q-116 0 -163.5 -90t-47.5 -232v-30q0 -145 47.5 -233.5t164.5 -88.5q78 0 125 45.5t47 121.5h265l3 -6q4 -164 -123.5 -274.5t-316.5 -110.5q-242 0 -373 153 t-131 393zM415 -137l31 142h219l-11 -57q64 -11 107 -52t43 -121q0 -107 -91.5 -171t-259.5 -64l-7 161q51 0 81 20.5t30 62.5q0 41 -32 57.5t-110 21.5z" />
<glyph unicode="&#xe8;" horiz-adv-x="1084" d="M77 510v40q0 241 132.5 397t355.5 155q219 0 340 -132t121 -357v-159h-646l-2 -6q8 -107 71.5 -176t172.5 -69q97 0 161 19.5t140 61.5l79 -180q-66 -54 -173 -89.5t-238 -35.5q-234 0 -374 150t-140 381zM186 1498l2 6h309l197 -266h-237zM379 652l3 -5h358v26 q0 93 -43.5 148.5t-131.5 55.5q-81 0 -128 -62t-58 -163z" />
<glyph unicode="&#xe9;" horiz-adv-x="1084" d="M77 510v40q0 241 132.5 397t355.5 155q219 0 340 -132t121 -357v-159h-646l-2 -6q8 -107 71.5 -176t172.5 -69q97 0 161 19.5t140 61.5l79 -180q-66 -54 -173 -89.5t-238 -35.5q-234 0 -374 150t-140 381zM379 652l3 -5h358v26q0 93 -43.5 148.5t-131.5 55.5 q-81 0 -128 -62t-58 -163zM398 1238l199 266h309l2 -6l-277 -260h-233z" />
<glyph unicode="&#xea;" horiz-adv-x="1084" d="M77 510v40q0 241 132.5 397t355.5 155q219 0 340 -132t121 -357v-159h-646l-2 -6q8 -107 71.5 -176t172.5 -69q97 0 161 19.5t140 61.5l79 -180q-66 -54 -173 -89.5t-238 -35.5q-234 0 -374 150t-140 381zM180 1271v26l282 240h169l287 -243v-23h-232l-140 133l-139 -133 h-227zM379 652l3 -5h358v26q0 93 -43.5 148.5t-131.5 55.5q-81 0 -128 -62t-58 -163z" />
<glyph unicode="&#xeb;" horiz-adv-x="1084" d="M77 510v40q0 241 132.5 397t355.5 155q219 0 340 -132t121 -357v-159h-646l-2 -6q8 -107 71.5 -176t172.5 -69q97 0 161 19.5t140 61.5l79 -180q-66 -54 -173 -89.5t-238 -35.5q-234 0 -374 150t-140 381zM163 1280v204h266v-204h-266zM379 652l3 -5h358v26 q0 93 -43.5 148.5t-131.5 55.5q-81 0 -128 -62t-58 -163zM663 1280v204h266v-204h-266z" />
<glyph unicode="&#xec;" horiz-adv-x="562" d="M-78 1498l2 6h309l197 -266h-237zM133 0v1082h292v-1082h-292z" />
<glyph unicode="&#xed;" horiz-adv-x="562" d="M132 1217l199 266h309l2 -6l-277 -260h-233zM133 0v1082h292v-1082h-292z" />
<glyph unicode="&#xee;" horiz-adv-x="562" d="M-84 1251v26l282 240h169l287 -243v-23h-232l-140 133l-139 -133h-227zM133 0v1082h292v-1082h-292z" />
<glyph unicode="&#xef;" horiz-adv-x="562" d="M-101 1258v204h266v-204h-266zM133 0v1082h292v-1082h-292zM399 1258v204h266v-204h-266z" />
<glyph unicode="&#xf0;" horiz-adv-x="1218" d="M48 468q0 226 134.5 362.5t365.5 136.5q81 0 153 -25.5t124 -70.5l4 4q-14 83 -54 153.5t-100 125.5l-245 -136l-78 113l192 106l-1 6q-31 16 -68 30t-77 26l92 218q88 -19 168.5 -52.5t149.5 -80.5l198 109l77 -113l-162 -90q102 -106 158.5 -245t56.5 -303v-196 q0 -250 -157 -408.5t-392 -158.5q-238 0 -388.5 140.5t-150.5 348.5zM340 468q0 -112 68 -188.5t183 -76.5q116 0 184.5 96.5t68.5 246.5v118q-35 39 -99 65t-151 26q-122 0 -188 -79t-66 -208z" />
<glyph unicode="&#xf1;" d="M107 0v1082h272l13 -155q54 83 133 129t177 46q164 0 256 -103t92 -323v-676h-293v675q0 109 -44 154.5t-133 45.5q-58 0 -104 -23.5t-77 -66.5v-785h-292zM202 1322q0 94 59.5 163.5t149.5 69.5q56 0 152 -43.5t148 -43.5q34 0 60 32t26 79l154 -45q0 -96 -59.5 -163.5 t-150.5 -67.5q-70 0 -158.5 43.5t-140.5 43.5q-36 0 -60 -32.5t-24 -77.5z" />
<glyph unicode="&#xf2;" d="M67 530v21q0 242 135 396.5t374 154.5q240 0 376 -154t136 -397v-21q0 -244 -135.5 -397.5t-374.5 -153.5q-240 0 -375.5 153.5t-135.5 397.5zM217 1498l2 6h309l197 -266h-237zM358 530q0 -148 52 -237.5t168 -89.5q113 0 165.5 90t52.5 237v21q0 144 -53 235t-167 91 q-113 0 -165.5 -91.5t-52.5 -234.5v-21z" />
<glyph unicode="&#xf3;" d="M67 530v21q0 242 135 396.5t374 154.5q240 0 376 -154t136 -397v-21q0 -244 -135.5 -397.5t-374.5 -153.5q-240 0 -375.5 153.5t-135.5 397.5zM358 530q0 -148 52 -237.5t168 -89.5q113 0 165.5 90t52.5 237v21q0 144 -53 235t-167 91q-113 0 -165.5 -91.5t-52.5 -234.5 v-21zM429 1238l199 266h309l2 -6l-277 -260h-233z" />
<glyph unicode="&#xf4;" d="M67 530v21q0 242 135 396.5t374 154.5q240 0 376 -154t136 -397v-21q0 -244 -135.5 -397.5t-374.5 -153.5q-240 0 -375.5 153.5t-135.5 397.5zM211 1270v26l282 240h169l287 -243v-23h-232l-140 133l-139 -133h-227zM358 530q0 -148 52 -237.5t168 -89.5q113 0 165.5 90 t52.5 237v21q0 144 -53 235t-167 91q-113 0 -165.5 -91.5t-52.5 -234.5v-21z" />
<glyph unicode="&#xf5;" d="M67 530v21q0 242 135 396.5t374 154.5q240 0 376 -154t136 -397v-21q0 -244 -135.5 -397.5t-374.5 -153.5q-240 0 -375.5 153.5t-135.5 397.5zM202 1322q0 94 59.5 163.5t149.5 69.5q56 0 152 -43.5t148 -43.5q34 0 60 32t26 79l154 -45q0 -96 -59.5 -163.5t-150.5 -67.5 q-70 0 -158.5 43.5t-140.5 43.5q-36 0 -60 -32.5t-24 -77.5zM358 530q0 -148 52 -237.5t168 -89.5q113 0 165.5 90t52.5 237v21q0 144 -53 235t-167 91q-113 0 -165.5 -91.5t-52.5 -234.5v-21z" />
<glyph unicode="&#xf6;" d="M67 530v21q0 242 135 396.5t374 154.5q240 0 376 -154t136 -397v-21q0 -244 -135.5 -397.5t-374.5 -153.5q-240 0 -375.5 153.5t-135.5 397.5zM194 1279v204h266v-204h-266zM358 530q0 -148 52 -237.5t168 -89.5q113 0 165.5 90t52.5 237v21q0 144 -53 235t-167 91 q-113 0 -165.5 -91.5t-52.5 -234.5v-21zM694 1279v204h266v-204h-266z" />
<glyph unicode="&#xf7;" horiz-adv-x="1168" d="M63 573v227h1029v-227h-1029zM432 164v233h293v-233h-293zM432 973v233h293v-233h-293z" />
<glyph unicode="&#xf8;" d="M67 530v21q0 242 135 396.5t374 154.5q50 0 96.5 -8t90.5 -22l70 143h161l-103 -211q95 -74 146 -191.5t51 -261.5v-21q0 -244 -135.5 -397.5t-374.5 -153.5q-48 0 -92 7t-84 19l-71 -146h-161l103 211q-101 71 -153.5 190.5t-52.5 269.5zM358 530q0 -62 8.5 -114 t26.5 -86l6 -1l260 531q-19 8 -39.5 12.5t-43.5 4.5q-113 0 -165.5 -91.5t-52.5 -234.5v-21zM505 215q15 -7 33.5 -9.5t39.5 -2.5q113 0 165.5 90t52.5 237v21q0 54 -8 102t-22 82l-6 1z" />
<glyph unicode="&#xf9;" d="M105 429v653h291v-655q0 -118 40 -169.5t118 -51.5q70 0 120 22.5t82 66.5v787h292v-1082h-249l-26 156q-50 -85 -127 -131t-177 -46q-171 0 -267.5 109.5t-96.5 340.5zM216 1477l2 6h309l197 -266h-237z" />
<glyph unicode="&#xfa;" d="M105 429v653h291v-655q0 -118 40 -169.5t118 -51.5q70 0 120 22.5t82 66.5v787h292v-1082h-249l-26 156q-50 -85 -127 -131t-177 -46q-171 0 -267.5 109.5t-96.5 340.5zM428 1217l199 266h309l2 -6l-277 -260h-233z" />
<glyph unicode="&#xfb;" d="M105 429v653h291v-655q0 -118 40 -169.5t118 -51.5q70 0 120 22.5t82 66.5v787h292v-1082h-249l-26 156q-50 -85 -127 -131t-177 -46q-171 0 -267.5 109.5t-96.5 340.5zM210 1251v26l282 240h169l287 -243v-23h-232l-140 133l-139 -133h-227z" />
<glyph unicode="&#xfc;" d="M105 429v653h291v-655q0 -118 40 -169.5t118 -51.5q70 0 120 22.5t82 66.5v787h292v-1082h-249l-26 156q-50 -85 -127 -131t-177 -46q-171 0 -267.5 109.5t-96.5 340.5zM193 1258v204h266v-204h-266zM693 1258v204h266v-204h-266z" />
<glyph unicode="&#xfd;" horiz-adv-x="1046" d="M5 1082h314l183 -628l12 -60h6l207 688h314l-439 -1244q-46 -116 -125 -195.5t-237 -79.5q-37 0 -68.5 6t-76.5 17l34 213q13 -2 28 -4t27 -2q72 0 111 35.5t60 88.5l34 84zM375 1217l199 266h309l2 -6l-277 -260h-233z" />
<glyph unicode="&#xfe;" horiz-adv-x="1162" d="M121 0v1560h292v-591q47 64 112 98.5t150 34.5q201 0 312 -157t111 -413v-21q0 -240 -111 -386t-310 -146q-85 0 -151 31.5t-113 92.5v-519h-291v416h-1zM413 297q27 -46 73.5 -70t114.5 -24q106 0 155.5 83t49.5 225v21q0 153 -51 248t-156 95q-66 0 -112.5 -27 t-73.5 -77v-474z" />
<glyph unicode="&#xff;" horiz-adv-x="1046" d="M5 1082h314l183 -628l12 -60h6l207 688h314l-439 -1244q-46 -116 -125 -195.5t-237 -79.5q-37 0 -68.5 6t-76.5 17l34 213q13 -2 28 -4t27 -2q72 0 111 35.5t60 88.5l34 84zM142 1258v204h266v-204h-266zM642 1258v204h266v-204h-266z" />
<glyph unicode="&#x100;" horiz-adv-x="1311" d="M12 0l501 1456h299l499 -1456h-295l-99 314h-511l-99 -314h-295zM290 1613v165h731v-165h-731zM478 543h367l-180 572h-6z" />
<glyph unicode="&#x101;" horiz-adv-x="1100" d="M55 305q0 159 122.5 246.5t357.5 87.5h163v86q0 78 -41 121t-121 43q-71 0 -109.5 -34.5t-38.5 -95.5l-282 1l-1 6q-7 137 119 236.5t331 99.5q194 0 315 -98.5t121 -280.5v-447q0 -76 11.5 -143t36.5 -133h-292q-16 37 -27.5 78t-16.5 84q-45 -79 -118.5 -131 t-175.5 -52q-170 0 -262 87.5t-92 238.5zM180 1292v165h731v-165h-731zM346 315q0 -54 36 -87t98 -33q77 0 137 38t81 88v153h-163q-93 0 -141 -46.5t-48 -112.5z" />
<glyph unicode="&#x102;" horiz-adv-x="1311" d="M12 0l501 1456h299l499 -1456h-295l-99 314h-511l-99 -314h-295zM315 1890l2 6h213q0 -53 30.5 -87t95.5 -34q63 0 93.5 34t30.5 87h214l2 -6q5 -127 -88.5 -207.5t-251.5 -80.5q-159 0 -253 80.5t-88 207.5zM478 543h367l-180 572h-6z" />
<glyph unicode="&#x103;" horiz-adv-x="1100" d="M55 305q0 159 122.5 246.5t357.5 87.5h163v86q0 78 -41 121t-121 43q-71 0 -109.5 -34.5t-38.5 -95.5l-282 1l-1 6q-7 137 119 236.5t331 99.5q194 0 315 -98.5t121 -280.5v-447q0 -76 11.5 -143t36.5 -133h-292q-16 37 -27.5 78t-16.5 84q-45 -79 -118.5 -131 t-175.5 -52q-170 0 -262 87.5t-92 238.5zM204 1568l2 6h213q0 -53 30.5 -87t95.5 -34q63 0 93.5 34t30.5 87h214l2 -6q5 -127 -88.5 -207.5t-251.5 -80.5q-159 0 -253 80.5t-88 207.5zM346 315q0 -54 36 -87t98 -33q77 0 137 38t81 88v153h-163q-93 0 -141 -46.5t-48 -112.5 z" />
<glyph unicode="&#x104;" horiz-adv-x="1311" d="M12 0l501 1456h299l499 -1456h-295l-99 314h-511l-99 -314h-295zM478 543h367l-180 572h-6zM905 -210q0 77 46 146.5t144 123.5l132 -60q-54 -53 -79 -90t-25 -86q0 -27 17 -48.5t69 -21.5q28 0 49.5 6t44.5 14l35 -154q-36 -19 -80.5 -31.5t-105.5 -12.5 q-108 0 -177.5 56.5t-69.5 157.5z" />
<glyph unicode="&#x105;" horiz-adv-x="1100" d="M55 305q0 159 122.5 246.5t357.5 87.5h163v86q0 78 -41 121t-121 43q-71 0 -109.5 -34.5t-38.5 -95.5l-282 1l-1 6q-7 137 119 236.5t331 99.5q194 0 315 -98.5t121 -280.5v-447q0 -76 11.5 -143t36.5 -133h-292q-16 37 -27.5 78t-16.5 84q-45 -79 -118.5 -131 t-175.5 -52q-170 0 -262 87.5t-92 238.5zM346 315q0 -54 36 -87t98 -33q77 0 137 38t81 88v153h-163q-93 0 -141 -46.5t-48 -112.5zM632 -210q0 77 46 146.5t144 123.5l132 -60q-54 -53 -79 -90t-25 -86q0 -27 17 -48.5t69 -21.5q28 0 49.5 6t44.5 14l35 -154 q-36 -19 -80.5 -31.5t-105.5 -12.5q-108 0 -177.5 56.5t-69.5 157.5z" />
<glyph unicode="&#x106;" horiz-adv-x="1309" d="M93 583v289q0 265 160 435t416 170q270 0 422 -138.5t148 -377.5l-2 -6h-284q0 144 -69 220.5t-215 76.5q-131 0 -208 -106.5t-77 -271.5v-291q0 -167 81 -273.5t219 -106.5q137 0 202.5 73.5t65.5 218.5h283l2 -6q4 -235 -143.5 -372.5t-409.5 -137.5q-263 0 -427 169 t-164 435zM525 1581l199 266h309l2 -6l-277 -260h-233z" />
<glyph unicode="&#x107;" horiz-adv-x="1060" d="M62 525v30q0 239 130.5 393t372.5 154q200 0 322.5 -114t118.5 -300l-2 -6h-266q0 84 -46 139.5t-127 55.5q-116 0 -163.5 -90t-47.5 -232v-30q0 -145 47.5 -233.5t164.5 -88.5q78 0 125 45.5t47 121.5h265l3 -6q4 -164 -123.5 -274.5t-316.5 -110.5q-242 0 -373 153 t-131 393zM383 1238l199 266h309l2 -6l-277 -260h-233z" />
<glyph unicode="&#x108;" horiz-adv-x="1309" d="M93 583v289q0 265 160 435t416 170q270 0 422 -138.5t148 -377.5l-2 -6h-284q0 144 -69 220.5t-215 76.5q-131 0 -208 -106.5t-77 -271.5v-291q0 -167 81 -273.5t219 -106.5q137 0 202.5 73.5t65.5 218.5h283l2 -6q4 -235 -143.5 -372.5t-409.5 -137.5q-263 0 -427 169 t-164 435zM307 1613v26l282 240h169l287 -243v-23h-232l-140 133l-139 -133h-227z" />
<glyph unicode="&#x109;" horiz-adv-x="1060" d="M62 525v30q0 239 130.5 393t372.5 154q200 0 322.5 -114t118.5 -300l-2 -6h-266q0 84 -46 139.5t-127 55.5q-116 0 -163.5 -90t-47.5 -232v-30q0 -145 47.5 -233.5t164.5 -88.5q78 0 125 45.5t47 121.5h265l3 -6q4 -164 -123.5 -274.5t-316.5 -110.5q-242 0 -373 153 t-131 393zM165 1270v26l282 240h169l287 -243v-23h-232l-140 133l-139 -133h-227z" />
<glyph unicode="&#x10a;" horiz-adv-x="1309" d="M93 583v289q0 265 160 435t416 170q270 0 422 -138.5t148 -377.5l-2 -6h-284q0 144 -69 220.5t-215 76.5q-131 0 -208 -106.5t-77 -271.5v-291q0 -167 81 -273.5t219 -106.5q137 0 202.5 73.5t65.5 218.5h283l2 -6q4 -235 -143.5 -372.5t-409.5 -137.5q-263 0 -427 169 t-164 435zM518 1622v241h304v-241h-304z" />
<glyph unicode="&#x10b;" horiz-adv-x="1060" d="M62 525v30q0 239 130.5 393t372.5 154q200 0 322.5 -114t118.5 -300l-2 -6h-266q0 84 -46 139.5t-127 55.5q-116 0 -163.5 -90t-47.5 -232v-30q0 -145 47.5 -233.5t164.5 -88.5q78 0 125 45.5t47 121.5h265l3 -6q4 -164 -123.5 -274.5t-316.5 -110.5q-242 0 -373 153 t-131 393zM376 1279v241h304v-241h-304z" />
<glyph unicode="&#x10c;" horiz-adv-x="1309" d="M93 583v289q0 265 160 435t416 170q270 0 422 -138.5t148 -377.5l-2 -6h-284q0 144 -69 220.5t-215 76.5q-131 0 -208 -106.5t-77 -271.5v-291q0 -167 81 -273.5t219 -106.5q137 0 202.5 73.5t65.5 218.5h283l2 -6q4 -235 -143.5 -372.5t-409.5 -137.5q-263 0 -427 169 t-164 435zM292 1878v16h264l116 -127l117 127h264v-17l-281 -255h-199z" />
<glyph unicode="&#x10d;" horiz-adv-x="1060" d="M62 525v30q0 239 130.5 393t372.5 154q200 0 322.5 -114t118.5 -300l-2 -6h-266q0 84 -46 139.5t-127 55.5q-116 0 -163.5 -90t-47.5 -232v-30q0 -145 47.5 -233.5t164.5 -88.5q78 0 125 45.5t47 121.5h265l3 -6q4 -164 -123.5 -274.5t-316.5 -110.5q-242 0 -373 153 t-131 393zM150 1535v16h264l116 -127l117 127h264v-17l-281 -255h-199z" />
<glyph unicode="&#x10e;" horiz-adv-x="1342" d="M136 0v1456h500q267 0 440 -170.5t173 -437.5v-241q0 -268 -173 -437.5t-440 -169.5h-500zM212 1857v16h264l116 -127l117 127h264v-17l-281 -255h-199zM428 224h193q157 0 246 106t89 277v243q0 169 -89 275t-246 106h-193v-1007z" />
<glyph unicode="&#x10f;" horiz-adv-x="1306" d="M67 511v21q0 256 110.5 413t311.5 157q81 0 146 -35t114 -100v593h293v-1560h-251l-24 132q-51 -75 -120.5 -114t-159.5 -39q-199 0 -309.5 146t-110.5 386zM358 511q0 -142 48 -223.5t156 -81.5q63 0 110 25.5t77 74.5v461q-30 51 -76.5 79.5t-108.5 28.5 q-107 0 -156.5 -95t-49.5 -248v-21zM1117 1163l61 245v151h190v-161l-129 -235h-122z" />
<glyph unicode="&#x110;" horiz-adv-x="1372" d="M31 652v181h135v623h500q267 0 440 -170.5t173 -437.5v-241q0 -268 -173 -437.5t-440 -169.5h-500v652h-135zM458 224h193q157 0 246 106t89 277v243q0 169 -89 275t-246 106h-193v-398h244v-181h-244v-428z" />
<glyph unicode="&#x111;" horiz-adv-x="1186" d="M67 511v21q0 256 110.5 413t311.5 157q81 0 146 -35t114 -100v253h-234v181h234v159h293v-159h144v-181h-144v-1220h-251l-24 132q-51 -75 -120.5 -114t-159.5 -39q-199 0 -309.5 146t-110.5 386zM358 511q0 -142 48 -223.5t156 -81.5q63 0 110 25.5t77 74.5v461 q-30 51 -76.5 79.5t-108.5 28.5q-107 0 -156.5 -95t-49.5 -248v-21z" />
<glyph unicode="&#x112;" horiz-adv-x="1176" d="M136 0v1456h995v-225h-703v-366h603v-225h-603v-416h705v-224h-997zM240 1613v165h731v-165h-731z" />
<glyph unicode="&#x113;" horiz-adv-x="1084" d="M77 510v40q0 241 132.5 397t355.5 155q219 0 340 -132t121 -357v-159h-646l-2 -6q8 -107 71.5 -176t172.5 -69q97 0 161 19.5t140 61.5l79 -180q-66 -54 -173 -89.5t-238 -35.5q-234 0 -374 150t-140 381zM182 1292v165h731v-165h-731zM379 652l3 -5h358v26 q0 93 -43.5 148.5t-131.5 55.5q-81 0 -128 -62t-58 -163z" />
<glyph unicode="&#x114;" horiz-adv-x="1176" d="M136 0v1456h995v-225h-703v-366h603v-225h-603v-416h705v-224h-997zM264 1890l2 6h213q0 -53 30.5 -87t95.5 -34q63 0 93.5 34t30.5 87h214l2 -6q5 -127 -88.5 -207.5t-251.5 -80.5q-159 0 -253 80.5t-88 207.5z" />
<glyph unicode="&#x115;" horiz-adv-x="1084" d="M77 510v40q0 241 132.5 397t355.5 155q219 0 340 -132t121 -357v-159h-646l-2 -6q8 -107 71.5 -176t172.5 -69q97 0 161 19.5t140 61.5l79 -180q-66 -54 -173 -89.5t-238 -35.5q-234 0 -374 150t-140 381zM206 1569l2 6h213q0 -53 30.5 -87t95.5 -34q63 0 93.5 34 t30.5 87h214l2 -6q5 -127 -88.5 -207.5t-251.5 -80.5q-159 0 -253 80.5t-88 207.5zM379 652l3 -5h358v26q0 93 -43.5 148.5t-131.5 55.5q-81 0 -128 -62t-58 -163z" />
<glyph unicode="&#x116;" horiz-adv-x="1176" d="M136 0v1456h995v-225h-703v-366h603v-225h-603v-416h705v-224h-997zM449 1601v241h304v-241h-304z" />
<glyph unicode="&#x117;" horiz-adv-x="1084" d="M77 510v40q0 241 132.5 397t355.5 155q219 0 340 -132t121 -357v-159h-646l-2 -6q8 -107 71.5 -176t172.5 -69q97 0 161 19.5t140 61.5l79 -180q-66 -54 -173 -89.5t-238 -35.5q-234 0 -374 150t-140 381zM379 652l3 -5h358v26q0 93 -43.5 148.5t-131.5 55.5 q-81 0 -128 -62t-58 -163zM391 1280v241h304v-241h-304z" />
<glyph unicode="&#x118;" horiz-adv-x="1176" d="M136 0v1456h995v-225h-703v-366h603v-225h-603v-416h705v-224h-997zM371 -210q0 77 46 146.5t144 123.5l132 -60q-54 -53 -79 -90t-25 -86q0 -27 17 -48.5t69 -21.5q28 0 49.5 6t44.5 14l35 -154q-36 -19 -80.5 -31.5t-105.5 -12.5q-108 0 -177.5 56.5t-69.5 157.5z" />
<glyph unicode="&#x119;" horiz-adv-x="1084" d="M77 510v40q0 241 132.5 397t355.5 155q219 0 340 -132t121 -357v-159h-646l-2 -6q8 -107 71.5 -176t172.5 -69q97 0 161 19.5t140 61.5l79 -180q-66 -54 -173 -89.5t-238 -35.5q-234 0 -374 150t-140 381zM379 652l3 -5h358v26q0 93 -43.5 148.5t-131.5 55.5 q-81 0 -128 -62t-58 -163zM555 -167q0 77 46 146.5t144 123.5l132 -60q-54 -53 -79 -90t-25 -86q0 -27 17 -48.5t69 -21.5q28 0 49.5 6t44.5 14l35 -154q-36 -19 -80.5 -31.5t-105.5 -12.5q-108 0 -177.5 56.5t-69.5 157.5z" />
<glyph unicode="&#x11a;" horiz-adv-x="1176" d="M136 0v1456h995v-225h-703v-366h603v-225h-603v-416h705v-224h-997zM223 1857v16h264l116 -127l117 127h264v-17l-281 -255h-199z" />
<glyph unicode="&#x11b;" horiz-adv-x="1084" d="M77 510v40q0 241 132.5 397t355.5 155q219 0 340 -132t121 -357v-159h-646l-2 -6q8 -107 71.5 -176t172.5 -69q97 0 161 19.5t140 61.5l79 -180q-66 -54 -173 -89.5t-238 -35.5q-234 0 -374 150t-140 381zM165 1536v16h264l116 -127l117 127h264v-17l-281 -255h-199z M379 652l3 -5h358v26q0 93 -43.5 148.5t-131.5 55.5q-81 0 -128 -62t-58 -163z" />
<glyph unicode="&#x11c;" horiz-adv-x="1369" d="M99 576v304q0 264 162.5 430.5t418.5 166.5q266 0 407.5 -129.5t144.5 -340.5l-2 -6h-275q-8 116 -74 183.5t-193 67.5q-134 0 -216 -103.5t-82 -266.5v-306q0 -166 85 -269.5t229 -103.5q102 0 164 21t94 52v270h-258v202h550v-549q-65 -86 -202.5 -153t-347.5 -67 q-267 0 -436 166t-169 431zM308 1613v26l282 240h169l287 -243v-23h-232l-140 133l-139 -133h-227z" />
<glyph unicode="&#x11d;" d="M67 511v21q0 256 111.5 413t312.5 157q91 0 160 -41t118 -117l23 138h252v-1077q0 -211 -138.5 -326.5t-385.5 -115.5q-82 0 -174 22.5t-170 61.5l54 218q67 -32 136.5 -48.5t151.5 -16.5q120 0 176.5 50t56.5 156v98q-48 -61 -113 -93t-149 -32q-199 0 -310.5 146.5 t-111.5 385.5zM190 1270v26l282 240h169l287 -243v-23h-232l-140 133l-139 -133h-227zM359 511q0 -142 48 -223.5t156 -81.5q67 0 113.5 24.5t74.5 71.5v470q-28 49 -74.5 76t-111.5 27q-107 0 -156.5 -95t-49.5 -248v-21z" />
<glyph unicode="&#x11e;" horiz-adv-x="1369" d="M99 576v304q0 264 162.5 430.5t418.5 166.5q266 0 407.5 -129.5t144.5 -340.5l-2 -6h-275q-8 116 -74 183.5t-193 67.5q-134 0 -216 -103.5t-82 -266.5v-306q0 -166 85 -269.5t229 -103.5q102 0 164 21t94 52v270h-258v202h550v-549q-65 -86 -202.5 -153t-347.5 -67 q-267 0 -436 166t-169 431zM334 1911l2 6h213q0 -53 30.5 -87t95.5 -34q63 0 93.5 34t30.5 87h214l2 -6q5 -127 -88.5 -207.5t-251.5 -80.5q-159 0 -253 80.5t-88 207.5z" />
<glyph unicode="&#x11f;" d="M67 511v21q0 256 111.5 413t312.5 157q91 0 160 -41t118 -117l23 138h252v-1077q0 -211 -138.5 -326.5t-385.5 -115.5q-82 0 -174 22.5t-170 61.5l54 218q67 -32 136.5 -48.5t151.5 -16.5q120 0 176.5 50t56.5 156v98q-48 -61 -113 -93t-149 -32q-199 0 -310.5 146.5 t-111.5 385.5zM216 1568l2 6h213q0 -53 30.5 -87t95.5 -34q63 0 93.5 34t30.5 87h214l2 -6q5 -127 -88.5 -207.5t-251.5 -80.5q-159 0 -253 80.5t-88 207.5zM359 511q0 -142 48 -223.5t156 -81.5q67 0 113.5 24.5t74.5 71.5v470q-28 49 -74.5 76t-111.5 27 q-107 0 -156.5 -95t-49.5 -248v-21z" />
<glyph unicode="&#x120;" horiz-adv-x="1369" d="M99 576v304q0 264 162.5 430.5t418.5 166.5q266 0 407.5 -129.5t144.5 -340.5l-2 -6h-275q-8 116 -74 183.5t-193 67.5q-134 0 -216 -103.5t-82 -266.5v-306q0 -166 85 -269.5t229 -103.5q102 0 164 21t94 52v270h-258v202h550v-549q-65 -86 -202.5 -153t-347.5 -67 q-267 0 -436 166t-169 431zM519 1622v241h304v-241h-304z" />
<glyph unicode="&#x121;" d="M67 511v21q0 256 111.5 413t312.5 157q91 0 160 -41t118 -117l23 138h252v-1077q0 -211 -138.5 -326.5t-385.5 -115.5q-82 0 -174 22.5t-170 61.5l54 218q67 -32 136.5 -48.5t151.5 -16.5q120 0 176.5 50t56.5 156v98q-48 -61 -113 -93t-149 -32q-199 0 -310.5 146.5 t-111.5 385.5zM359 511q0 -142 48 -223.5t156 -81.5q67 0 113.5 24.5t74.5 71.5v470q-28 49 -74.5 76t-111.5 27q-107 0 -156.5 -95t-49.5 -248v-21zM401 1279v241h304v-241h-304z" />
<glyph unicode="&#x122;" horiz-adv-x="1369" d="M99 576v304q0 264 162.5 430.5t418.5 166.5q266 0 407.5 -129.5t144.5 -340.5l-2 -6h-275q-8 116 -74 183.5t-193 67.5q-134 0 -216 -103.5t-82 -266.5v-306q0 -166 85 -269.5t229 -103.5q102 0 164 21t94 52v270h-258v202h550v-549q-65 -86 -202.5 -153t-347.5 -67 q-267 0 -436 166t-169 431zM527 -501l61 245v151h190v-161l-129 -235h-122z" />
<glyph unicode="&#x123;" d="M67 511v21q0 256 111.5 413t312.5 157q91 0 160 -41t118 -117l23 138h252v-1077q0 -211 -138.5 -326.5t-385.5 -115.5q-82 0 -174 22.5t-170 61.5l54 218q67 -32 136.5 -48.5t151.5 -16.5q120 0 176.5 50t56.5 156v98q-48 -61 -113 -93t-149 -32q-199 0 -310.5 146.5 t-111.5 385.5zM359 511q0 -142 48 -223.5t156 -81.5q67 0 113.5 24.5t74.5 71.5v470q-28 49 -74.5 76t-111.5 27q-107 0 -156.5 -95t-49.5 -248v-21zM431 1258v175l115 260h159l-35 -270v-165h-239z" />
<glyph unicode="&#x124;" horiz-adv-x="1450" d="M136 0v1456h292v-626h594v626h291v-1456h-291v605h-594v-605h-292zM356 1592v26l282 240h169l287 -243v-23h-232l-140 133l-139 -133h-227z" />
<glyph unicode="&#x125;" d="M105 0v1560h292v-615q51 74 125 115.5t164 41.5q169 0 265.5 -112.5t96.5 -347.5v-642h-292v644q0 126 -44.5 178.5t-132.5 52.5q-60 0 -106 -21.5t-76 -60.5v-793h-292zM152 1593v26l282 240h169l287 -243v-23h-232l-140 133l-139 -133h-227z" />
<glyph unicode="&#x126;" horiz-adv-x="1445" d="M16 1028v171h118v257h292v-257h594v257h291v-257h127v-171h-127v-1028h-291v605h-594v-605h-292v1028h-118zM426 830h594v198h-594v-198z" />
<glyph unicode="&#x127;" horiz-adv-x="1186" d="M-6 1217v181h141v162h292v-162h238v-181h-238v-272q51 74 125 115.5t164 41.5q169 0 265.5 -112.5t96.5 -347.5v-642h-292v644q0 126 -44.5 178.5t-132.5 52.5q-60 0 -106 -21.5t-76 -60.5v-793h-292v1217h-141z" />
<glyph unicode="&#x128;" horiz-adv-x="601" d="M-73 1644q0 94 59.5 163.5t149.5 69.5q56 0 152 -43.5t148 -43.5q34 0 60 32t26 79l154 -45q0 -96 -59.5 -163.5t-150.5 -67.5q-70 0 -158.5 43.5t-140.5 43.5q-36 0 -60 -32.5t-24 -77.5zM154 0v1456h292v-1456h-292z" />
<glyph unicode="&#x129;" horiz-adv-x="562" d="M-93 1301q0 94 59.5 163.5t149.5 69.5q56 0 152 -43.5t148 -43.5q34 0 60 32t26 79l154 -45q0 -96 -59.5 -163.5t-150.5 -67.5q-70 0 -158.5 43.5t-140.5 43.5q-36 0 -60 -32.5t-24 -77.5zM133 0v1082h292v-1082h-292z" />
<glyph unicode="&#x12a;" horiz-adv-x="601" d="M-62 1613v165h731v-165h-731zM154 0v1456h292v-1456h-292z" />
<glyph unicode="&#x12b;" horiz-adv-x="562" d="M-82 1272v165h731v-165h-731zM133 0v1082h292v-1082h-292z" />
<glyph unicode="&#x12c;" horiz-adv-x="601" d="M-38 1890l2 6h213q0 -53 30.5 -87t95.5 -34q63 0 93.5 34t30.5 87h214l2 -6q5 -127 -88.5 -207.5t-251.5 -80.5q-159 0 -253 80.5t-88 207.5zM154 0v1456h292v-1456h-292z" />
<glyph unicode="&#x12d;" horiz-adv-x="562" d="M-58 1547l2 6h213q0 -53 30.5 -87t95.5 -34q63 0 93.5 34t30.5 87h214l2 -6q5 -127 -88.5 -207.5t-251.5 -80.5q-159 0 -253 80.5t-88 207.5zM133 0v1082h292v-1082h-292z" />
<glyph unicode="&#x12e;" horiz-adv-x="601" d="M41 -210q0 77 46 146.5t144 123.5l132 -60q-54 -53 -79 -90t-25 -86q0 -27 17 -48.5t69 -21.5q28 0 49.5 6t44.5 14l35 -154q-36 -19 -80.5 -31.5t-105.5 -12.5q-108 0 -177.5 56.5t-69.5 157.5zM154 0v1456h292v-1456h-292z" />
<glyph unicode="&#x12f;" horiz-adv-x="547" d="M14 -210q0 77 46 146.5t144 123.5l132 -60q-54 -53 -79 -90t-25 -86q0 -27 17 -48.5t69 -21.5q28 0 49.5 6t44.5 14l35 -154q-36 -19 -80.5 -31.5t-105.5 -12.5q-108 0 -177.5 56.5t-69.5 157.5zM127 0v1082h292v-1082h-292zM127 1341v219h292v-219h-292z" />
<glyph unicode="&#x130;" horiz-adv-x="601" d="M146 1601v241h304v-241h-304zM154 0v1456h292v-1456h-292z" />
<glyph unicode="&#x131;" horiz-adv-x="562" d="M133 0v1082h292v-1082h-292z" />
<glyph unicode="&#x132;" horiz-adv-x="1770" d="M154 0v1456h292v-1456h-292zM664 417l2 6h284q0 -115 55 -167.5t148 -52.5q81 0 137.5 62.5t56.5 171.5v1019h291v-1019q0 -211 -137.5 -334.5t-347.5 -123.5q-228 0 -361 111t-128 327z" />
<glyph unicode="&#x133;" horiz-adv-x="1090" d="M127 0v1082h292v-1082h-292zM127 1341v219h292v-219h-292zM449 -420l14 223q23 -6 46 -9t49 -3q59 0 91 41.5t32 127.5v1122h293v-1122q0 -190 -101 -293.5t-281 -103.5q-40 0 -73 4t-70 13zM675 1343v217h293v-217h-293z" />
<glyph unicode="&#x134;" horiz-adv-x="1169" d="M63 417l2 6h284q0 -115 55 -167.5t148 -52.5q81 0 137.5 62.5t56.5 171.5v1019h291v-1019q0 -211 -137.5 -334.5t-347.5 -123.5q-228 0 -361 111t-128 327zM508 1588v26l282 240h169l287 -243v-23h-232l-140 133l-139 -133h-227z" />
<glyph unicode="&#x135;" horiz-adv-x="578" d="M-90 1243v26l282 240h169l287 -243v-23h-232l-140 133l-139 -133h-227zM-84 -420l15 221q23 -6 47.5 -9.5t50.5 -3.5q57 0 89 45t32 127v1122h291v-1122q0 -190 -101 -293.5t-280 -103.5q-41 0 -73.5 4t-70.5 13z" />
<glyph unicode="&#x136;" horiz-adv-x="1323" d="M136 0v1456h292v-595h127l386 595h357l-490 -678l529 -778h-356l-391 608h-162v-608h-292zM483 -489l61 245v151h190v-161l-129 -235h-122z" />
<glyph unicode="&#x137;" horiz-adv-x="1097" d="M112 0v1560h292v-885h72l251 407h338l-346 -490l399 -592h-335l-299 453h-80v-453h-292zM403 -488l61 245v151h190v-161l-129 -235h-122z" />
<glyph unicode="&#x138;" horiz-adv-x="1210" d="M129 0v1082h292v-412h87l279 412h368l-384 -507l401 -575h-374l-261 405h-116v-405h-292z" />
<glyph unicode="&#x139;" horiz-adv-x="1108" d="M136 0v1456h292v-1232h648v-224h-940zM136 1537l199 266h309l2 -6l-277 -260h-233z" />
<glyph unicode="&#x13a;" horiz-adv-x="547" d="M125 1601l199 266h309l2 -6l-277 -260h-233zM127 0v1560h292v-1560h-292z" />
<glyph unicode="&#x13b;" horiz-adv-x="1108" d="M136 0v1456h292v-1232h648v-224h-940zM445 -488l61 245v151h190v-161l-129 -235h-122z" />
<glyph unicode="&#x13c;" horiz-adv-x="547" d="M110 -488l61 245v151h190v-161l-129 -235h-122zM127 0v1560h292v-1560h-292z" />
<glyph unicode="&#x13d;" horiz-adv-x="1108" d="M136 0v1456h292v-1232h648v-224h-940zM615 1062l61 245v151h190v-161l-129 -235h-122z" />
<glyph unicode="&#x13e;" horiz-adv-x="697" d="M127 0v1560h292v-1560h-292zM508 1163l61 245v151h190v-161l-129 -235h-122z" />
<glyph unicode="&#x13f;" horiz-adv-x="1108" d="M136 0v1456h292v-1232h648v-224h-940zM578 681v241h304v-241h-304z" />
<glyph unicode="&#x140;" horiz-adv-x="767" d="M127 0v1560h292v-1560h-292zM515 629v241h304v-241h-304z" />
<glyph unicode="&#x141;" horiz-adv-x="1040" d="M12 572v195l107 31v658h292v-574l251 72v-195l-251 -72v-463h648v-224h-940v603z" />
<glyph unicode="&#x142;" horiz-adv-x="594" d="M15 572v195l132 43v750h292v-653l141 47v-195l-141 -47v-712h-292v615z" />
<glyph unicode="&#x143;" horiz-adv-x="1450" d="M136 0v1456h292l588 -994l6 1v993h291v-1456h-291l-588 995l-6 -1v-994h-292zM576 1560l199 266h309l2 -6l-277 -260h-233z" />
<glyph unicode="&#x144;" d="M107 0v1082h272l13 -155q54 83 133 129t177 46q164 0 256 -103t92 -323v-676h-293v675q0 109 -44 154.5t-133 45.5q-58 0 -104 -23.5t-77 -66.5v-785h-292zM429 1238l199 266h309l2 -6l-277 -260h-233z" />
<glyph unicode="&#x145;" horiz-adv-x="1450" d="M136 0v1456h292l588 -994l6 1v993h291v-1456h-291l-588 995l-6 -1v-994h-292zM561 -488l61 245v151h190v-161l-129 -235h-122z" />
<glyph unicode="&#x146;" d="M107 0v1082h272l13 -155q54 83 133 129t177 46q164 0 256 -103t92 -323v-676h-293v675q0 109 -44 154.5t-133 45.5q-58 0 -104 -23.5t-77 -66.5v-785h-292zM414 -488l61 245v151h190v-161l-129 -235h-122z" />
<glyph unicode="&#x147;" horiz-adv-x="1450" d="M136 0v1456h292l588 -994l6 1v993h291v-1456h-291l-588 995l-6 -1v-994h-292zM343 1857v16h264l116 -127l117 127h264v-17l-281 -255h-199z" />
<glyph unicode="&#x148;" d="M107 0v1082h272l13 -155q54 83 133 129t177 46q164 0 256 -103t92 -323v-676h-293v675q0 109 -44 154.5t-133 45.5q-58 0 -104 -23.5t-77 -66.5v-785h-292zM196 1535v16h264l116 -127l117 127h264v-17l-281 -255h-199z" />
<glyph unicode="&#x149;" d="M-26 1163l61 245v151h190v-161l-129 -235h-122zM107 0v1082h272l13 -155q54 83 133 129t177 46q164 0 256 -103t92 -323v-676h-293v675q0 109 -44 154.5t-133 45.5q-58 0 -104 -23.5t-77 -66.5v-785h-292z" />
<glyph unicode="&#x14a;" horiz-adv-x="1438" d="M131 0v1456h293l587 -981l6 1v980h291v-1496q0 -190 -101 -293.5t-280 -103.5q-41 0 -75 4t-70 13l14 221q23 -6 48 -9.5t52 -3.5q57 0 89 45t32 127v40l-587 982l-6 -1v-981h-293z" />
<glyph unicode="&#x14b;" d="M107 0v1082h272l13 -152q53 81 132 126.5t176 45.5q164 0 256 -105.5t92 -333.5v-703q0 -190 -101 -293.5t-281 -103.5q-40 0 -74 4t-70 13l14 224q22 -6 47 -9t52 -3q58 0 89 43t31 125v702q0 116 -40.5 164.5t-121.5 48.5q-64 0 -113 -23.5t-81 -65.5v-786h-292z" />
<glyph unicode="&#x14c;" horiz-adv-x="1399" d="M92 597v262q0 267 167.5 442.5t436.5 175.5q271 0 441 -175.5t170 -442.5v-262q0 -268 -169.5 -443t-440.5 -175q-269 0 -437 175t-168 443zM335 1634v165h731v-165h-731zM383 597q0 -173 83 -282t231 -109q150 0 234 109t84 282v264q0 170 -85 279t-234 109t-231 -108.5 t-82 -279.5v-264z" />
<glyph unicode="&#x14d;" d="M67 530v21q0 242 135 396.5t374 154.5q240 0 376 -154t136 -397v-21q0 -244 -135.5 -397.5t-374.5 -153.5q-240 0 -375.5 153.5t-135.5 397.5zM213 1292v165h731v-165h-731zM358 530q0 -148 52 -237.5t168 -89.5q113 0 165.5 90t52.5 237v21q0 144 -53 235t-167 91 q-113 0 -165.5 -91.5t-52.5 -234.5v-21z" />
<glyph unicode="&#x14e;" horiz-adv-x="1399" d="M92 597v262q0 267 167.5 442.5t436.5 175.5q271 0 441 -175.5t170 -442.5v-262q0 -268 -169.5 -443t-440.5 -175q-269 0 -437 175t-168 443zM359 1911l2 6h213q0 -53 30.5 -87t95.5 -34q63 0 93.5 34t30.5 87h214l2 -6q5 -127 -88.5 -207.5t-251.5 -80.5 q-159 0 -253 80.5t-88 207.5zM383 597q0 -173 83 -282t231 -109q150 0 234 109t84 282v264q0 170 -85 279t-234 109t-231 -108.5t-82 -279.5v-264z" />
<glyph unicode="&#x14f;" d="M67 530v21q0 242 135 396.5t374 154.5q240 0 376 -154t136 -397v-21q0 -244 -135.5 -397.5t-374.5 -153.5q-240 0 -375.5 153.5t-135.5 397.5zM237 1568l2 6h213q0 -53 30.5 -87t95.5 -34q63 0 93.5 34t30.5 87h214l2 -6q5 -127 -88.5 -207.5t-251.5 -80.5 q-159 0 -253 80.5t-88 207.5zM358 530q0 -148 52 -237.5t168 -89.5q113 0 165.5 90t52.5 237v21q0 144 -53 235t-167 91q-113 0 -165.5 -91.5t-52.5 -234.5v-21z" />
<glyph unicode="&#x150;" horiz-adv-x="1399" d="M92 597v262q0 267 167.5 442.5t436.5 175.5q271 0 441 -175.5t170 -442.5v-262q0 -268 -169.5 -443t-440.5 -175q-269 0 -437 175t-168 443zM383 597q0 -173 83 -282t231 -109q150 0 234 109t84 282v264q0 170 -85 279t-234 109t-231 -108.5t-82 -279.5v-264zM390 1622 l198 266h275l2 -5l-240 -261h-235zM736 1627l240 261h279l2 -6l-285 -260h-234z" />
<glyph unicode="&#x151;" d="M67 530v21q0 242 135 396.5t374 154.5q240 0 376 -154t136 -397v-21q0 -244 -135.5 -397.5t-374.5 -153.5q-240 0 -375.5 153.5t-135.5 397.5zM268 1279l198 266h275l2 -5l-240 -261h-235zM358 530q0 -148 52 -237.5t168 -89.5q113 0 165.5 90t52.5 237v21q0 144 -53 235 t-167 91q-113 0 -165.5 -91.5t-52.5 -234.5v-21zM614 1284l240 261h279l2 -6l-285 -260h-234z" />
<glyph unicode="&#x152;" horiz-adv-x="1984" d="M97 576v304q0 265 167 431t437 166q69 0 140 -6t150 -15h865v-225h-703v-366h603v-225h-603v-416h705v-224h-867q-92 -10 -156.5 -15.5t-131.5 -5.5q-270 0 -438 165.5t-168 431.5zM388 576q0 -182 83.5 -277t231.5 -95q40 0 79.5 2t78.5 7v1030q-45 4 -83.5 6.5 t-76.5 2.5q-148 0 -230.5 -94.5t-82.5 -275.5v-306z" />
<glyph unicode="&#x153;" horiz-adv-x="1848" d="M67 530v21q0 242 135 396.5t374 154.5q127 0 227 -46.5t167 -129.5q65 84 159.5 130t213.5 46q219 0 340 -132t121 -357v-159h-646l-2 -6q8 -107 71.5 -176t172.5 -69q97 0 161 19.5t140 61.5l79 -180q-66 -54 -173 -89.5t-238 -35.5q-127 0 -228 46t-169 131 q-67 -85 -167 -131t-227 -46q-240 0 -375.5 153.5t-135.5 397.5zM358 530q0 -148 52 -237.5t168 -89.5q113 0 165.5 90t52.5 237v21q0 144 -53 235t-167 91q-113 0 -165.5 -91.5t-52.5 -234.5v-21zM1157 652l3 -5h358v26q0 93 -43.5 148.5t-131.5 55.5q-81 0 -128 -62 t-58 -163z" />
<glyph unicode="&#x154;" horiz-adv-x="1354" d="M136 0v1456h549q249 0 389.5 -113.5t140.5 -316.5q0 -113 -59 -194t-173 -131q129 -38 185.5 -127t56.5 -220v-107q0 -61 16.5 -127.5t56.5 -98.5v-21h-301q-40 32 -52 107t-12 142v103q0 109 -59.5 169.5t-167.5 60.5h-278v-582h-292zM428 807h252q123 0 183.5 52 t60.5 154q0 100 -60.5 159t-178.5 59h-257v-424zM482 1560l199 266h309l2 -6l-277 -260h-233z" />
<glyph unicode="&#x155;" horiz-adv-x="717" d="M112 0v1082h271l13 -160q38 85 98.5 132.5t139.5 47.5q22 0 40.5 -3.5t37.5 -8.5l-31 -259l-107 3q-65 0 -107 -27t-64 -76v-731h-291zM264 1238l199 266h309l2 -6l-277 -260h-233z" />
<glyph unicode="&#x156;" horiz-adv-x="1354" d="M136 0v1456h549q249 0 389.5 -113.5t140.5 -316.5q0 -113 -59 -194t-173 -131q129 -38 185.5 -127t56.5 -220v-107q0 -61 16.5 -127.5t56.5 -98.5v-21h-301q-40 32 -52 107t-12 142v103q0 109 -59.5 169.5t-167.5 60.5h-278v-582h-292zM428 807h252q123 0 183.5 52 t60.5 154q0 100 -60.5 159t-178.5 59h-257v-424zM467 -488l61 245v151h190v-161l-129 -235h-122z" />
<glyph unicode="&#x157;" horiz-adv-x="717" d="M108 -488l61 245v151h190v-161l-129 -235h-122zM112 0v1082h271l13 -160q38 85 98.5 132.5t139.5 47.5q22 0 40.5 -3.5t37.5 -8.5l-31 -259l-107 3q-65 0 -107 -27t-64 -76v-731h-291z" />
<glyph unicode="&#x158;" horiz-adv-x="1354" d="M136 0v1456h549q249 0 389.5 -113.5t140.5 -316.5q0 -113 -59 -194t-173 -131q129 -38 185.5 -127t56.5 -220v-107q0 -61 16.5 -127.5t56.5 -98.5v-21h-301q-40 32 -52 107t-12 142v103q0 109 -59.5 169.5t-167.5 60.5h-278v-582h-292zM249 1857v16h264l116 -127l117 127 h264v-17l-281 -255h-199zM428 807h252q123 0 183.5 52t60.5 154q0 100 -60.5 159t-178.5 59h-257v-424z" />
<glyph unicode="&#x159;" horiz-adv-x="717" d="M33 1535v16h264l116 -127l117 127h264v-17l-281 -255h-199zM112 0v1082h271l13 -160q38 85 98.5 132.5t139.5 47.5q22 0 40.5 -3.5t37.5 -8.5l-31 -259l-107 3q-65 0 -107 -27t-64 -76v-731h-291z" />
<glyph unicode="&#x15a;" horiz-adv-x="1299" d="M90 445l2 6h284q0 -130 79.5 -190.5t221.5 -60.5q119 0 182 49t63 131q0 84 -59.5 135t-208.5 96q-260 75 -393 178t-133 282t152.5 292.5t389.5 113.5q240 0 391 -127.5t146 -314.5l-2 -6h-283q0 101 -67.5 163.5t-189.5 62.5q-117 0 -181 -52t-64 -133 q0 -74 68.5 -121.5t236.5 -100.5q241 -67 365 -177t124 -289q0 -187 -147.5 -295t-389.5 -108q-238 0 -415 122.5t-172 343.5zM501 1581l199 266h309l2 -6l-277 -260h-233z" />
<glyph unicode="&#x15b;" horiz-adv-x="1056" d="M64 338l2 6h267q3 -87 57 -126t141 -39q81 0 123.5 32t42.5 87q0 48 -46.5 83t-172.5 62q-192 39 -289.5 115.5t-97.5 208.5q0 140 117.5 237.5t314.5 97.5q207 0 329.5 -97t117.5 -245l-2 -6h-282q0 65 -41.5 106t-121.5 41q-71 0 -111.5 -34.5t-40.5 -86.5 q0 -50 42.5 -82t172.5 -57q200 -40 297 -117.5t97 -213.5q0 -146 -125 -238.5t-330 -92.5q-216 0 -341.5 109.5t-119.5 249.5zM372 1238l199 266h309l2 -6l-277 -260h-233z" />
<glyph unicode="&#x15c;" horiz-adv-x="1299" d="M90 445l2 6h284q0 -130 79.5 -190.5t221.5 -60.5q119 0 182 49t63 131q0 84 -59.5 135t-208.5 96q-260 75 -393 178t-133 282t152.5 292.5t389.5 113.5q240 0 391 -127.5t146 -314.5l-2 -6h-283q0 101 -67.5 163.5t-189.5 62.5q-117 0 -181 -52t-64 -133 q0 -74 68.5 -121.5t236.5 -100.5q241 -67 365 -177t124 -289q0 -187 -147.5 -295t-389.5 -108q-238 0 -415 122.5t-172 343.5zM283 1613v26l282 240h169l287 -243v-23h-232l-140 133l-139 -133h-227z" />
<glyph unicode="&#x15d;" horiz-adv-x="1056" d="M64 338l2 6h267q3 -87 57 -126t141 -39q81 0 123.5 32t42.5 87q0 48 -46.5 83t-172.5 62q-192 39 -289.5 115.5t-97.5 208.5q0 140 117.5 237.5t314.5 97.5q207 0 329.5 -97t117.5 -245l-2 -6h-282q0 65 -41.5 106t-121.5 41q-71 0 -111.5 -34.5t-40.5 -86.5 q0 -50 42.5 -82t172.5 -57q200 -40 297 -117.5t97 -213.5q0 -146 -125 -238.5t-330 -92.5q-216 0 -341.5 109.5t-119.5 249.5zM154 1270v26l282 240h169l287 -243v-23h-232l-140 133l-139 -133h-227z" />
<glyph unicode="&#x15e;" horiz-adv-x="1299" d="M90 445l2 6h284q0 -130 79.5 -190.5t221.5 -60.5q119 0 182 49t63 131q0 84 -59.5 135t-208.5 96q-260 75 -393 178t-133 282t152.5 292.5t389.5 113.5q240 0 391 -127.5t146 -314.5l-2 -6h-283q0 101 -67.5 163.5t-189.5 62.5q-117 0 -181 -52t-64 -133 q0 -74 68.5 -121.5t236.5 -100.5q241 -67 365 -177t124 -289q0 -187 -147.5 -295t-389.5 -108q-238 0 -415 122.5t-172 343.5zM530 -144l31 142h219l-11 -57q64 -11 107 -52t43 -121q0 -107 -91.5 -171t-259.5 -64l-7 161q51 0 81 20.5t30 62.5q0 41 -32 57.5t-110 21.5z " />
<glyph unicode="&#x15f;" horiz-adv-x="1056" d="M64 338l2 6h267q3 -87 57 -126t141 -39q81 0 123.5 32t42.5 87q0 48 -46.5 83t-172.5 62q-192 39 -289.5 115.5t-97.5 208.5q0 140 117.5 237.5t314.5 97.5q207 0 329.5 -97t117.5 -245l-2 -6h-282q0 65 -41.5 106t-121.5 41q-71 0 -111.5 -34.5t-40.5 -86.5 q0 -50 42.5 -82t172.5 -57q200 -40 297 -117.5t97 -213.5q0 -146 -125 -238.5t-330 -92.5q-216 0 -341.5 109.5t-119.5 249.5zM383 -144l31 142h219l-11 -57q64 -11 107 -52t43 -121q0 -107 -91.5 -171t-259.5 -64l-7 161q51 0 81 20.5t30 62.5q0 41 -32 57.5t-110 21.5z " />
<glyph unicode="&#x160;" horiz-adv-x="1299" d="M90 445l2 6h284q0 -130 79.5 -190.5t221.5 -60.5q119 0 182 49t63 131q0 84 -59.5 135t-208.5 96q-260 75 -393 178t-133 282t152.5 292.5t389.5 113.5q240 0 391 -127.5t146 -314.5l-2 -6h-283q0 101 -67.5 163.5t-189.5 62.5q-117 0 -181 -52t-64 -133 q0 -74 68.5 -121.5t236.5 -100.5q241 -67 365 -177t124 -289q0 -187 -147.5 -295t-389.5 -108q-238 0 -415 122.5t-172 343.5zM268 1878v16h264l116 -127l117 127h264v-17l-281 -255h-199z" />
<glyph unicode="&#x161;" horiz-adv-x="1056" d="M64 338l2 6h267q3 -87 57 -126t141 -39q81 0 123.5 32t42.5 87q0 48 -46.5 83t-172.5 62q-192 39 -289.5 115.5t-97.5 208.5q0 140 117.5 237.5t314.5 97.5q207 0 329.5 -97t117.5 -245l-2 -6h-282q0 65 -41.5 106t-121.5 41q-71 0 -111.5 -34.5t-40.5 -86.5 q0 -50 42.5 -82t172.5 -57q200 -40 297 -117.5t97 -213.5q0 -146 -125 -238.5t-330 -92.5q-216 0 -341.5 109.5t-119.5 249.5zM139 1535v16h264l116 -127l117 127h264v-17l-281 -255h-199z" />
<glyph unicode="&#x162;" horiz-adv-x="1169" d="M28 1231v225h1114v-225h-412v-1231h-292v1231h-410zM424 -488l61 245v151h190v-161l-129 -235h-122z" />
<glyph unicode="&#x163;" horiz-adv-x="715" d="M9 877v205h158v265h292v-265h182v-205h-182v-551q0 -63 26 -90t70 -27q23 0 39.5 2.5t38.5 8.5l25 -211q-44 -15 -86 -22.5t-91 -7.5q-151 0 -232.5 83t-81.5 263v552h-158zM269 -498l61 245v151h190v-161l-129 -235h-122z" />
<glyph unicode="&#x164;" horiz-adv-x="1169" d="M28 1231v225h1114v-225h-412v-1231h-292v1231h-410zM206 1857v16h264l116 -127l117 127h264v-17l-281 -255h-199z" />
<glyph unicode="&#x165;" horiz-adv-x="755" d="M9 877v205h158v265h292v-265h182v-205h-182v-551q0 -63 26 -90t70 -27q23 0 39.5 2.5t38.5 8.5l25 -211q-44 -15 -86 -22.5t-91 -7.5q-151 0 -232.5 83t-81.5 263v552h-158zM584 1193l61 245v151h190v-161l-129 -235h-122z" />
<glyph unicode="&#x166;" horiz-adv-x="1169" d="M28 1231v225h1114v-225h-412v-293h197v-181h-197v-757h-292v757h-182v181h182v293h-410z" />
<glyph unicode="&#x167;" horiz-adv-x="715" d="M-13 539v181h180v157h-158v205h158v265h292v-265h182v-205h-182v-157h199v-181h-199v-213q0 -63 26 -90t70 -27q23 0 39.5 2.5t38.5 8.5l25 -211q-44 -15 -86 -22.5t-91 -7.5q-151 0 -232.5 83t-81.5 263v214h-180z" />
<glyph unicode="&#x168;" horiz-adv-x="1407" d="M120 490v966h293v-966q0 -144 77 -215.5t212 -71.5q137 0 215 71t78 216v966h293v-966q0 -245 -162 -378t-424 -133q-261 0 -421.5 133t-160.5 378zM329 1644q0 94 59.5 163.5t149.5 69.5q56 0 152 -43.5t148 -43.5q34 0 60 32t26 79l154 -45q0 -96 -59.5 -163.5 t-150.5 -67.5q-70 0 -158.5 43.5t-140.5 43.5q-36 0 -60 -32.5t-24 -77.5z" />
<glyph unicode="&#x169;" d="M105 429v653h291v-655q0 -118 40 -169.5t118 -51.5q70 0 120 22.5t82 66.5v787h292v-1082h-249l-26 156q-50 -85 -127 -131t-177 -46q-171 0 -267.5 109.5t-96.5 340.5zM201 1301q0 94 59.5 163.5t149.5 69.5q56 0 152 -43.5t148 -43.5q34 0 60 32t26 79l154 -45 q0 -96 -59.5 -163.5t-150.5 -67.5q-70 0 -158.5 43.5t-140.5 43.5q-36 0 -60 -32.5t-24 -77.5z" />
<glyph unicode="&#x16a;" horiz-adv-x="1407" d="M120 490v966h293v-966q0 -144 77 -215.5t212 -71.5q137 0 215 71t78 216v966h293v-966q0 -245 -162 -378t-424 -133q-261 0 -421.5 133t-160.5 378zM340 1613v165h731v-165h-731z" />
<glyph unicode="&#x16b;" d="M105 429v653h291v-655q0 -118 40 -169.5t118 -51.5q70 0 120 22.5t82 66.5v787h292v-1082h-249l-26 156q-50 -85 -127 -131t-177 -46q-171 0 -267.5 109.5t-96.5 340.5zM212 1272v165h731v-165h-731z" />
<glyph unicode="&#x16c;" horiz-adv-x="1407" d="M120 490v966h293v-966q0 -144 77 -215.5t212 -71.5q137 0 215 71t78 216v966h293v-966q0 -245 -162 -378t-424 -133q-261 0 -421.5 133t-160.5 378zM364 1890l2 6h213q0 -53 30.5 -87t95.5 -34q63 0 93.5 34t30.5 87h214l2 -6q5 -127 -88.5 -207.5t-251.5 -80.5 q-159 0 -253 80.5t-88 207.5z" />
<glyph unicode="&#x16d;" d="M105 429v653h291v-655q0 -118 40 -169.5t118 -51.5q70 0 120 22.5t82 66.5v787h292v-1082h-249l-26 156q-50 -85 -127 -131t-177 -46q-171 0 -267.5 109.5t-96.5 340.5zM236 1547l2 6h213q0 -53 30.5 -87t95.5 -34q63 0 93.5 34t30.5 87h214l2 -6q5 -127 -88.5 -207.5 t-251.5 -80.5q-159 0 -253 80.5t-88 207.5z" />
<glyph unicode="&#x16e;" horiz-adv-x="1407" d="M120 490v966h293v-966q0 -144 77 -215.5t212 -71.5q137 0 215 71t78 216v966h293v-966q0 -245 -162 -378t-424 -133q-261 0 -421.5 133t-160.5 378zM492 1739q0 83 61.5 139.5t151.5 56.5q88 0 149 -56.5t61 -139.5q0 -84 -60.5 -138t-149.5 -54q-90 0 -151.5 54 t-61.5 138zM608 1739q0 -43 28 -70.5t69 -27.5t67.5 27.5t26.5 70.5q0 44 -26.5 72t-67.5 28q-42 0 -69.5 -28.5t-27.5 -71.5z" />
<glyph unicode="&#x16f;" d="M105 429v653h291v-655q0 -118 40 -169.5t118 -51.5q70 0 120 22.5t82 66.5v787h292v-1082h-249l-26 156q-50 -85 -127 -131t-177 -46q-171 0 -267.5 109.5t-96.5 340.5zM364 1396q0 83 61.5 139.5t151.5 56.5q88 0 149 -56.5t61 -139.5q0 -84 -60.5 -138t-149.5 -54 q-90 0 -151.5 54t-61.5 138zM480 1396q0 -43 28 -70.5t69 -27.5t67.5 27.5t26.5 70.5q0 44 -26.5 72t-67.5 28q-42 0 -69.5 -28.5t-27.5 -71.5z" />
<glyph unicode="&#x170;" horiz-adv-x="1407" d="M120 490v966h293v-966q0 -144 77 -215.5t212 -71.5q137 0 215 71t78 216v966h293v-966q0 -245 -162 -378t-424 -133q-261 0 -421.5 133t-160.5 378zM395 1601l198 266h275l2 -5l-240 -261h-235zM741 1606l240 261h279l2 -6l-285 -260h-234z" />
<glyph unicode="&#x171;" d="M105 429v653h291v-655q0 -118 40 -169.5t118 -51.5q70 0 120 22.5t82 66.5v787h292v-1082h-249l-26 156q-50 -85 -127 -131t-177 -46q-171 0 -267.5 109.5t-96.5 340.5zM267 1258l198 266h275l2 -5l-240 -261h-235zM613 1263l240 261h279l2 -6l-285 -260h-234z" />
<glyph unicode="&#x172;" horiz-adv-x="1407" d="M120 490v966h293v-966q0 -144 77 -215.5t212 -71.5q137 0 215 71t78 216v966h293v-966q0 -245 -162 -378t-424 -133q-261 0 -421.5 133t-160.5 378zM487 -210q0 77 46 146.5t144 123.5l132 -60q-54 -53 -79 -90t-25 -86q0 -27 17 -48.5t69 -21.5q28 0 49.5 6t44.5 14 l35 -154q-36 -19 -80.5 -31.5t-105.5 -12.5q-108 0 -177.5 56.5t-69.5 157.5z" />
<glyph unicode="&#x173;" d="M105 429v653h291v-655q0 -118 40 -169.5t118 -51.5q70 0 120 22.5t82 66.5v787h292v-1082h-249l-26 156q-50 -85 -127 -131t-177 -46q-171 0 -267.5 109.5t-96.5 340.5zM640 -210q0 77 46 146.5t144 123.5l132 -60q-54 -53 -79 -90t-25 -86q0 -27 17 -48.5t69 -21.5 q28 0 49.5 6t44.5 14l35 -154q-36 -19 -80.5 -31.5t-105.5 -12.5q-108 0 -177.5 56.5t-69.5 157.5z" />
<glyph unicode="&#x174;" horiz-adv-x="1815" d="M24 1456h286l209 -997l6 -1l273 998h215l275 -998h6l208 998h285l-340 -1456h-271l-267 961h-6l-267 -961h-271zM540 1592v26l282 240h169l287 -243v-23h-232l-140 133l-139 -133h-227z" />
<glyph unicode="&#x175;" horiz-adv-x="1507" d="M29 1082h274l143 -693h6l202 693h195l204 -695h6l141 695h274l-275 -1082h-244l-201 644h-6l-201 -644h-243zM386 1251v26l282 240h169l287 -243v-23h-232l-140 133l-139 -133h-227z" />
<glyph unicode="&#x176;" horiz-adv-x="1292" d="M5 1456h320l318 -671h6l318 671h320l-500 -944v-512h-291v527zM286 1592v26l282 240h169l287 -243v-23h-232l-140 133l-139 -133h-227z" />
<glyph unicode="&#x177;" horiz-adv-x="1046" d="M5 1082h314l183 -628l12 -60h6l207 688h314l-439 -1244q-46 -116 -125 -195.5t-237 -79.5q-37 0 -68.5 6t-76.5 17l34 213q13 -2 28 -4t27 -2q72 0 111 35.5t60 88.5l34 84zM157 1251v26l282 240h169l287 -243v-23h-232l-140 133l-139 -133h-227z" />
<glyph unicode="&#x178;" horiz-adv-x="1292" d="M5 1456h320l318 -671h6l318 671h320l-500 -944v-512h-291v527zM269 1601v204h266v-204h-266zM769 1601v204h266v-204h-266z" />
<glyph unicode="&#x179;" horiz-adv-x="1206" d="M77 0v152l692 1079h-691v225h1047v-146l-695 -1086h712v-224h-1065zM453 1561l199 266h309l2 -6l-277 -260h-233z" />
<glyph unicode="&#x17a;" horiz-adv-x="1046" d="M75 0v172l515 684h-499v226h866v-167l-519 -691h536v-224h-899zM376 1217l199 266h309l2 -6l-277 -260h-233z" />
<glyph unicode="&#x17b;" horiz-adv-x="1206" d="M77 0v152l692 1079h-691v225h1047v-146l-695 -1086h712v-224h-1065zM446 1602v241h304v-241h-304z" />
<glyph unicode="&#x17c;" horiz-adv-x="1046" d="M75 0v172l515 684h-499v226h866v-167l-519 -691h536v-224h-899zM369 1258v241h304v-241h-304z" />
<glyph unicode="&#x17d;" horiz-adv-x="1206" d="M77 0v152l692 1079h-691v225h1047v-146l-695 -1086h712v-224h-1065zM220 1858v16h264l116 -127l117 127h264v-17l-281 -255h-199z" />
<glyph unicode="&#x17e;" horiz-adv-x="1046" d="M75 0v172l515 684h-499v226h866v-167l-519 -691h536v-224h-899zM143 1514v16h264l116 -127l117 127h264v-17l-281 -255h-199z" />
<glyph unicode="&#x17f;" horiz-adv-x="532" d="M116 0v1202q0 182 105 280.5t295 98.5q37 0 74.5 -5.5t85.5 -15.5l-25 -215q-26 5 -47 8t-50 3q-71 0 -109 -40.5t-38 -113.5v-1202h-291z" />
<glyph unicode="&#x192;" horiz-adv-x="740" d="M-50 -420l15 221q23 -6 47 -9.5t51 -3.5q57 0 88.5 45t31.5 127v917h-160v205h160v120q0 182 105 280.5t296 98.5q37 0 74.5 -5.5t85.5 -15.5l-25 -217q-23 4 -46.5 7t-52.5 3q-71 0 -107.5 -39t-36.5 -112v-120h207v-205h-207l-1 -917q0 -190 -101 -293.5t-281 -103.5 q-40 0 -73 4t-70 13z" />
<glyph unicode="&#x1a0;" horiz-adv-x="1435" d="M87 597v262q0 267 167.5 442.5t436.5 175.5q134 0 247.5 -47t195.5 -131q104 26 158 108t54 210h216q0 -192 -80 -319t-231 -179q25 -60 38 -125.5t13 -134.5v-262q0 -268 -169.5 -443t-440.5 -175q-269 0 -437 175t-168 443zM378 597q0 -173 83 -282t231 -109 q150 0 234 109t84 282v264q0 170 -85 279t-234 109t-231 -108.5t-82 -279.5v-264z" />
<glyph unicode="&#x1a1;" horiz-adv-x="1191" d="M67 530v21q0 242 135 396.5t374 154.5q112 0 203 -36.5t158 -102.5q56 35 85 103.5t29 164.5h211q0 -146 -60 -247.5t-174 -150.5q29 -62 44.5 -133.5t15.5 -148.5v-21q0 -244 -135.5 -397.5t-374.5 -153.5q-240 0 -375.5 153.5t-135.5 397.5zM358 530q0 -148 52 -237.5 t168 -89.5q113 0 165.5 90t52.5 237v21q0 144 -53 235t-167 91q-113 0 -165.5 -91.5t-52.5 -234.5v-21z" />
<glyph unicode="&#x1af;" horiz-adv-x="1460" d="M120 490v966h293v-966q0 -144 77 -215.5t212 -71.5q137 0 215 71t78 216v966h293v-181l6 -1q83 20 119 104t36 229h215q0 -231 -91.5 -364t-284.5 -161v-592q0 -245 -162 -378t-424 -133q-261 0 -421.5 133t-160.5 378z" />
<glyph unicode="&#x1b0;" horiz-adv-x="1166" d="M105 429v653h291v-655q0 -118 40 -169.5t118 -51.5q70 0 120 22.5t82 66.5v787h292v-124l6 -2q82 13 117.5 71.5t35.5 168.5h187l2 -5q3 -176 -81.5 -274.5t-266.5 -120.5v-796h-249l-26 156q-50 -85 -127 -131t-177 -46q-171 0 -267.5 109.5t-96.5 340.5z" />
<glyph unicode="&#x1f0;" horiz-adv-x="578" d="M-105 1508v16h264l116 -127l117 127h264v-17l-281 -255h-199zM-84 -420l15 221q23 -6 47.5 -9.5t50.5 -3.5q57 0 89 45t32 127v1122h291v-1122q0 -190 -101 -293.5t-280 -103.5q-41 0 -73.5 4t-70.5 13z" />
<glyph unicode="&#x1fa;" horiz-adv-x="1311" d="M12 0l501 1456h299l499 -1456h-295l-99 314h-511l-99 -314h-295zM454 1696q0 78 58.5 131t144.5 53q84 0 141.5 -53t57.5 -131q0 -80 -57.5 -131t-141.5 -51q-86 0 -144.5 51.5t-58.5 130.5zM478 543h367l-180 572h-6zM567 1696q0 -39 25.5 -63.5t64.5 -24.5 q37 0 61.5 24.5t24.5 63.5t-24.5 64.5t-61.5 25.5q-39 0 -64.5 -25.5t-25.5 -64.5zM574 1934l184 206h256l2 -6l-263 -205h-177z" />
<glyph unicode="&#x1fb;" horiz-adv-x="1100" d="M55 305q0 159 122.5 246.5t357.5 87.5h163v86q0 78 -41 121t-121 43q-71 0 -109.5 -34.5t-38.5 -95.5l-282 1l-1 6q-7 137 119 236.5t331 99.5q194 0 315 -98.5t121 -280.5v-447q0 -76 11.5 -143t36.5 -133h-292q-16 37 -27.5 78t-16.5 84q-45 -79 -118.5 -131 t-175.5 -52q-170 0 -262 87.5t-92 238.5zM342 1374q0 78 58.5 131t144.5 53q84 0 141.5 -53t57.5 -131q0 -80 -57.5 -131t-141.5 -51q-86 0 -144.5 51.5t-58.5 130.5zM346 315q0 -54 36 -87t98 -33q77 0 137 38t81 88v153h-163q-93 0 -141 -46.5t-48 -112.5zM455 1374 q0 -39 25.5 -63.5t64.5 -24.5q37 0 61.5 24.5t24.5 63.5t-24.5 64.5t-61.5 25.5q-39 0 -64.5 -25.5t-25.5 -64.5zM462 1612l184 206h256l2 -6l-263 -205h-177z" />
<glyph unicode="&#x1fc;" horiz-adv-x="1925" d="M3 0l784 1456h1016v-228h-596l16 -366h499v-227h-490l17 -408h616v-227h-898l-14 335h-440l-168 -335h-342zM633 575h310l-23 559l-6 1zM786 1560l199 266h309l2 -6l-277 -260h-233z" />
<glyph unicode="&#x1fd;" horiz-adv-x="1729" d="M46 317q0 159 127 245t370 86h181v59q0 79 -41 124.5t-115 45.5q-81 0 -127 -37.5t-46 -93.5l-283 18l-2 6q-6 144 121.5 238t339.5 94q102 0 186 -27.5t143 -79.5q61 52 142.5 79.5t180.5 27.5q212 0 333 -132t121 -358v-158h-650l-2 -6q4 -112 66 -178.5t186 -66.5 q92 0 154 20t140 61l77 -184q-62 -48 -169 -84.5t-233 -36.5q-129 0 -229.5 40.5t-167.5 116.5q-60 -68 -161.5 -112.5t-240.5 -44.5q-192 0 -296.5 90.5t-104.5 247.5zM338 313q0 -59 41.5 -93.5t123.5 -34.5q58 0 121 30.5t100 72.5v176h-179q-98 0 -152.5 -44t-54.5 -107 zM714 1239l199 266h309l2 -6l-277 -260h-233zM1027 649l2 -5h362v28q0 94 -42.5 149.5t-125.5 55.5q-95 0 -142 -61.5t-54 -166.5z" />
<glyph unicode="&#x1fe;" horiz-adv-x="1410" d="M92 597v262q0 267 167.5 442.5t436.5 175.5q100 0 188.5 -26.5t162.5 -74.5l83 142h143l-130 -223q79 -83 121.5 -195t42.5 -241v-262q0 -268 -169.5 -443t-440.5 -175q-79 0 -151 16t-133 47l-80 -137h-143l119 204q-104 83 -160.5 209.5t-56.5 278.5zM383 597 q0 -74 15.5 -137.5t45.5 -107.5l6 -1l468 803q-42 45 -98 70t-124 25q-149 0 -231 -108.5t-82 -279.5v-264zM535 251q33 -22 74 -33.5t88 -11.5q150 0 234 109t84 282v264q0 45 -7 87t-18 73l-6 1zM565 1622l199 266h309l2 -6l-277 -260h-233z" />
<glyph unicode="&#x1ff;" d="M67 530v21q0 242 135 396.5t374 154.5q50 0 96.5 -8t90.5 -22l70 143h161l-103 -211q95 -74 146 -191.5t51 -261.5v-21q0 -244 -135.5 -397.5t-374.5 -153.5q-48 0 -92 7t-84 19l-71 -146h-161l103 211q-101 71 -153.5 190.5t-52.5 269.5zM358 530q0 -62 8.5 -114 t26.5 -86l6 -1l260 531q-19 8 -39.5 12.5t-43.5 4.5q-113 0 -165.5 -91.5t-52.5 -234.5v-21zM391 1234l199 266h309l2 -6l-277 -260h-233zM505 215q15 -7 33.5 -9.5t39.5 -2.5q113 0 165.5 90t52.5 237v21q0 54 -8 102t-22 82l-6 1z" />
<glyph unicode="&#x218;" horiz-adv-x="1299" d="M90 445l2 6h284q0 -130 79.5 -190.5t221.5 -60.5q119 0 182 49t63 131q0 84 -59.5 135t-208.5 96q-260 75 -393 178t-133 282t152.5 292.5t389.5 113.5q240 0 391 -127.5t146 -314.5l-2 -6h-283q0 101 -67.5 163.5t-189.5 62.5q-117 0 -181 -52t-64 -133 q0 -74 68.5 -121.5t236.5 -100.5q241 -67 365 -177t124 -289q0 -187 -147.5 -295t-389.5 -108q-238 0 -415 122.5t-172 343.5zM504 -508l61 245v151h190v-161l-129 -235h-122z" />
<glyph unicode="&#x219;" horiz-adv-x="1056" d="M64 338l2 6h267q3 -87 57 -126t141 -39q81 0 123.5 32t42.5 87q0 48 -46.5 83t-172.5 62q-192 39 -289.5 115.5t-97.5 208.5q0 140 117.5 237.5t314.5 97.5q207 0 329.5 -97t117.5 -245l-2 -6h-282q0 65 -41.5 106t-121.5 41q-71 0 -111.5 -34.5t-40.5 -86.5 q0 -50 42.5 -82t172.5 -57q200 -40 297 -117.5t97 -213.5q0 -146 -125 -238.5t-330 -92.5q-216 0 -341.5 109.5t-119.5 249.5zM357 -508l61 245v151h190v-161l-129 -235h-122z" />
<glyph unicode="&#x237;" horiz-adv-x="578" d="M-84 -420l15 221q23 -6 47.5 -9.5t50.5 -3.5q57 0 89 45t32 127v1122h291v-1122q0 -190 -101 -293.5t-280 -103.5q-41 0 -73.5 4t-70.5 13z" />
<glyph unicode="&#x2bc;" horiz-adv-x="405" d="M57 1016l60 349v195h246v-194l-162 -350h-144z" />
<glyph unicode="&#x2c6;" horiz-adv-x="1016" d="M137 1252v26l282 240h169l287 -243v-23h-232l-140 133l-139 -133h-227z" />
<glyph unicode="&#x2c7;" horiz-adv-x="965" d="M99 1508v16h264l116 -127l117 127h264v-17l-281 -255h-199z" />
<glyph unicode="&#x2d8;" horiz-adv-x="910" d="M112 1450l2 6h213q0 -53 30.5 -87t95.5 -34q63 0 93.5 34t30.5 87h214l2 -6q5 -127 -88.5 -207.5t-251.5 -80.5q-159 0 -253 80.5t-88 207.5z" />
<glyph unicode="&#x2d9;" horiz-adv-x="629" d="M146 1227v241h304v-241h-304z" />
<glyph unicode="&#x2da;" horiz-adv-x="682" d="M129 1298q0 83 61.5 139.5t151.5 56.5q88 0 149 -56.5t61 -139.5q0 -84 -60.5 -138t-149.5 -54q-90 0 -151.5 54t-61.5 138zM245 1298q0 -43 28 -70.5t69 -27.5t67.5 27.5t26.5 70.5q0 44 -26.5 72t-67.5 28q-42 0 -69.5 -28.5t-27.5 -71.5z" />
<glyph unicode="&#x2db;" horiz-adv-x="618" d="M83 -210q0 77 46 146.5t144 123.5l132 -60q-54 -53 -79 -90t-25 -86q0 -27 17 -48.5t69 -21.5q28 0 49.5 6t44.5 14l35 -154q-36 -19 -80.5 -31.5t-105.5 -12.5q-108 0 -177.5 56.5t-69.5 157.5z" />
<glyph unicode="&#x2dc;" horiz-adv-x="986" d="M119 1272q0 94 59.5 163.5t149.5 69.5q56 0 152 -43.5t148 -43.5q34 0 60 32t26 79l154 -45q0 -96 -59.5 -163.5t-150.5 -67.5q-70 0 -158.5 43.5t-140.5 43.5q-36 0 -60 -32.5t-24 -77.5z" />
<glyph unicode="&#x2dd;" horiz-adv-x="876" d="M141 1252l198 266h275l2 -5l-240 -261h-235zM487 1257l240 261h279l2 -6l-285 -260h-234z" />
<glyph unicode="&#x2f3;" horiz-adv-x="664" d="M158 -228q0 71 53 118t131 47q76 0 128 -47t52 -118q0 -70 -52 -116t-128 -46q-79 0 -131.5 46t-52.5 116zM272 -228q0 -29 19.5 -48.5t50.5 -19.5q29 0 47.5 19t18.5 49q0 32 -18.5 51.5t-47.5 19.5q-31 0 -50.5 -19.5t-19.5 -51.5z" />
<glyph unicode="&#x300;" horiz-adv-x="0" d="M-791 1510h231l135 -313h-177z" />
<glyph unicode="&#x301;" horiz-adv-x="0" d="M-777 1202l135 314h230l-191 -314h-174z" />
<glyph unicode="&#x303;" horiz-adv-x="0" d="M-899 1272q0 94 59.5 163.5t149.5 69.5q56 0 152 -43.5t148 -43.5q34 0 60 32t26 79l154 -45q0 -96 -59.5 -163.5t-150.5 -67.5q-70 0 -158.5 43.5t-140.5 43.5q-36 0 -60 -32.5t-24 -77.5z" />
<glyph unicode="&#x309;" horiz-adv-x="0" d="M-739 1536l7 133q185 0 283 -52t98 -143q0 -64 -43 -100t-107 -45v-65h-218l-16 137q74 3 105.5 18t26.5 45v6q5 35 -32 50.5t-104 15.5z" />
<glyph unicode="&#x30f;" horiz-adv-x="0" d="M-1035 1512l2 6h278l240 -261l-2 -5h-233zM-644 1513l2 5h275l199 -266h-236z" />
<glyph unicode="&#x323;" horiz-adv-x="0" d="M-762 -113h327v-241h-327v241z" />
<glyph unicode="&#x384;" horiz-adv-x="695" d="M238 1270l76 354h278l-209 -354h-145z" />
<glyph unicode="&#x385;" horiz-adv-x="1125" d="M153 1252v204h253v-204h-253zM478 1478l42 279h282l-176 -279h-148zM701 1252v204h254v-204h-254z" />
<glyph unicode="&#x386;" horiz-adv-x="1311" d="M12 0l501 1456h299l499 -1456h-295l-99 314h-511l-99 -314h-295zM104 1270l76 354h278l-209 -354h-145zM478 543h367l-180 572h-6z" />
<glyph unicode="&#x387;" horiz-adv-x="619" d="M159 568v260h292v-260h-292z" />
<glyph unicode="&#x388;" horiz-adv-x="1276" d="M-138 1272l76 354h278l-209 -354h-145zM236 0v1456h995v-225h-703v-366h603v-225h-603v-416h705v-224h-997z" />
<glyph unicode="&#x389;" horiz-adv-x="1550" d="M-97 1270l76 354h278l-209 -354h-145zM236 0v1456h292v-626h594v626h291v-1456h-291v605h-594v-605h-292z" />
<glyph unicode="&#x38a;" horiz-adv-x="701" d="M-88 1272l76 354h278l-209 -354h-145zM254 0v1456h292v-1456h-292z" />
<glyph unicode="&#x38c;" horiz-adv-x="1419" d="M-15 1270l76 354h278l-209 -354h-145zM112 597v262q0 267 167.5 442.5t436.5 175.5q271 0 441 -175.5t170 -442.5v-262q0 -268 -169.5 -443t-440.5 -175q-269 0 -437 175t-168 443zM403 597q0 -173 83 -282t231 -109q150 0 234 109t84 282v264q0 170 -85 279t-234 109 t-231 -108.5t-82 -279.5v-264z" />
<glyph unicode="&#x38e;" horiz-adv-x="1392" d="M-194 1270l76 354h278l-209 -354h-145zM105 1456h320l318 -671h6l318 671h320l-500 -944v-512h-291v527z" />
<glyph unicode="&#x38f;" horiz-adv-x="1396" d="M-26 1270l76 354h278l-209 -354h-145zM124 764v92q0 273 159.5 447t414.5 174t416 -174t161 -447v-92q0 -161 -73.5 -303t-191.5 -234h250v-227h-505v231q92 33 145 164.5t53 368.5v94q0 191 -67.5 291t-187.5 100q-119 0 -185.5 -100.5t-66.5 -290.5v-94 q0 -239 53.5 -369.5t150.5 -163.5v-231h-504v227h244q-120 91 -193 234t-73 303z" />
<glyph unicode="&#x390;" horiz-adv-x="681" d="M-113 1189v204h253v-204h-253zM137 325v756h292v-760q0 -64 22 -89.5t69 -25.5q29 0 46 3.5t52 14.5l30 -210q-47 -20 -89.5 -27.5t-97.5 -7.5q-157 0 -240.5 85.5t-83.5 260.5zM212 1415l42 279h282l-176 -279h-148zM435 1189v204h254v-204h-254z" />
<glyph unicode="&#x391;" horiz-adv-x="1311" d="M12 0l501 1456h299l499 -1456h-295l-99 314h-511l-99 -314h-295zM478 543h367l-180 572h-6z" />
<glyph unicode="&#x392;" horiz-adv-x="1314" d="M136 0v1456h492q257 0 401 -100t144 -299q0 -101 -53.5 -180.5t-155.5 -119.5q131 -28 196.5 -120t65.5 -213q0 -209 -138 -316.5t-391 -107.5h-561zM428 224h269q116 0 177 50.5t61 149.5q0 107 -52 163.5t-164 56.5h-291v-420zM428 846h210q117 0 180 48t63 140 q0 101 -63.5 149t-189.5 48h-200v-385z" />
<glyph unicode="&#x393;" horiz-adv-x="1141" d="M136 0v1456h949v-225h-657v-1231h-292z" />
<glyph unicode="&#x394;" horiz-adv-x="1494" d="M22 0l583 1456h300l572 -1456h-1455zM412 224h676l-331 885h-6z" />
<glyph unicode="&#x395;" horiz-adv-x="1176" d="M136 0v1456h995v-225h-703v-366h603v-225h-603v-416h705v-224h-997z" />
<glyph unicode="&#x396;" horiz-adv-x="1206" d="M77 0v152l692 1079h-691v225h1047v-146l-695 -1086h712v-224h-1065z" />
<glyph unicode="&#x397;" horiz-adv-x="1450" d="M136 0v1456h292v-626h594v626h291v-1456h-291v605h-594v-605h-292z" />
<glyph unicode="&#x398;" horiz-adv-x="1410" d="M92 597v262q0 267 167.5 442.5t436.5 175.5q271 0 441 -175.5t170 -442.5v-262q0 -268 -169.5 -443t-440.5 -175q-269 0 -437 175t-168 443zM383 597q0 -173 83 -282t231 -109q150 0 234 109t84 282v264q0 170 -85 279t-234 109t-231 -108.5t-82 -279.5v-264zM520 613 v224h380v-224h-380z" />
<glyph unicode="&#x399;" horiz-adv-x="601" d="M154 0v1456h292v-1456h-292z" />
<glyph unicode="&#x39a;" horiz-adv-x="1323" d="M136 0v1456h292v-595h127l386 595h357l-490 -678l529 -778h-356l-391 608h-162v-608h-292z" />
<glyph unicode="&#x39b;" horiz-adv-x="1328" d="M19 0l494 1456h299l494 -1456h-305l-335 1136h-6l-335 -1136h-306z" />
<glyph unicode="&#x39c;" horiz-adv-x="1787" d="M136 0v1456h381l371 -1073h6l374 1073h382v-1456h-292v434l28 643l-6 1l-390 -1078h-196l-388 1074l-6 -1l28 -639v-434h-292z" />
<glyph unicode="&#x39d;" horiz-adv-x="1450" d="M136 0v1456h292l588 -994l6 1v993h291v-1456h-291l-588 995l-6 -1v-994h-292z" />
<glyph unicode="&#x39e;" horiz-adv-x="1163" d="M98 0v224h981v-224h-981zM120 1231v225h918v-225h-918zM210 632v217h756v-217h-756z" />
<glyph unicode="&#x39f;" horiz-adv-x="1399" d="M92 597v262q0 267 167.5 442.5t436.5 175.5q271 0 441 -175.5t170 -442.5v-262q0 -268 -169.5 -443t-440.5 -175q-269 0 -437 175t-168 443zM383 597q0 -173 83 -282t231 -109q150 0 234 109t84 282v264q0 170 -85 279t-234 109t-231 -108.5t-82 -279.5v-264z" />
<glyph unicode="&#x3a0;" horiz-adv-x="1450" d="M136 0v1456h1178v-1456h-292v1231h-594v-1231h-292z" />
<glyph unicode="&#x3a1;" horiz-adv-x="1334" d="M136 0v1456h580q251 0 395 -128t144 -337t-144 -336t-395 -127h-288v-528h-292zM428 753h288q122 0 185 66.5t63 169.5q0 105 -62.5 173.5t-185.5 68.5h-288v-478z" />
<glyph unicode="&#x3a3;" horiz-adv-x="1163" d="M72 0v152l443 581l-443 572v151h1006v-225h-616l362 -490v-17l-364 -499h645v-225h-1033z" />
<glyph unicode="&#x3a4;" horiz-adv-x="1169" d="M28 1231v225h1114v-225h-412v-1231h-292v1231h-410z" />
<glyph unicode="&#x3a5;" horiz-adv-x="1292" d="M5 1456h320l318 -671h6l318 671h320l-500 -944v-512h-291v527z" />
<glyph unicode="&#x3a6;" horiz-adv-x="1507" d="M59 718q0 231 154 377t404 160v201h292v-201q248 -16 401.5 -161t153.5 -374q0 -225 -154 -367.5t-401 -157.5v-195h-292v195q-250 13 -404 155t-154 368zM345 718q0 -125 71.5 -198t194.5 -79l6 2v564l-6 2q-123 -8 -194.5 -84t-71.5 -207zM909 443l6 -2q121 8 191.5 81 t70.5 198q0 129 -70.5 204.5t-191.5 84.5l-6 -2v-564z" />
<glyph unicode="&#x3a7;" horiz-adv-x="1303" d="M31 0l443 734l-432 722h338l269 -516l273 516h340l-432 -722l457 -734h-353l-281 525l-281 -525h-341z" />
<glyph unicode="&#x3a8;" horiz-adv-x="1483" d="M56 939v517h291v-517q0 -158 64 -249.5t180 -109.5l6 2v874h291v-875l6 -1q115 15 175 106t60 253v517h293v-517q0 -260 -144 -415t-390 -181v-343h-291v342q-251 21 -396 176.5t-145 420.5z" />
<glyph unicode="&#x3a9;" horiz-adv-x="1376" d="M104 764v92q0 273 159.5 447t414.5 174t416 -174t161 -447v-92q0 -161 -73.5 -303t-191.5 -234h250v-227h-505v231q92 33 145 164.5t53 368.5v94q0 191 -67.5 291t-187.5 100q-119 0 -185.5 -100.5t-66.5 -290.5v-94q0 -239 53.5 -369.5t150.5 -163.5v-231h-504v227h244 q-120 91 -193 234t-73 303z" />
<glyph unicode="&#x3aa;" horiz-adv-x="601" d="M-81 1601v204h266v-204h-266zM154 0v1456h292v-1456h-292zM419 1601v204h266v-204h-266z" />
<glyph unicode="&#x3ab;" horiz-adv-x="1292" d="M5 1456h320l318 -671h6l318 671h320l-500 -944v-512h-291v527zM269 1601v204h266v-204h-266zM769 1601v204h266v-204h-266z" />
<glyph unicode="&#x3ac;" horiz-adv-x="1154" d="M73 511v21q0 256 111 413t312 157q87 0 153.5 -40t115.5 -114l46 133h218v-756q0 -64 17.5 -89.5t53.5 -25.5q13 0 22 1.5t19 5.5l25 -210q-35 -16 -67 -22t-74 -6q-93 0 -157.5 38t-97.5 116q-49 -75 -117 -114.5t-159 -39.5q-200 0 -310.5 146t-110.5 386zM365 511 q0 -143 47.5 -225.5t155.5 -82.5q59 0 101 22.5t69 66.5q-1 7 -1 14.5v18.5v458q-28 45 -69 69.5t-98 24.5q-107 0 -156 -95.5t-49 -249.5v-21zM506 1224l76 354h278l-209 -354h-145z" />
<glyph unicode="&#x3ad;" horiz-adv-x="1140" d="M95 306q0 90 52.5 154t151.5 97q-87 36 -136 96.5t-49 132.5q0 150 132 232.5t352 82.5q193 0 324 -89.5t126 -234.5l-2 -6h-282q0 54 -51 86t-130 32q-89 0 -133.5 -37t-44.5 -87q0 -55 46 -86.5t133 -31.5h187v-189h-187q-96 0 -147 -32t-51 -101q0 -55 51.5 -94.5 t144.5 -39.5q94 0 147 37t53 92h281l2 -6q5 -162 -134.5 -248t-332.5 -86q-220 0 -361.5 87.5t-141.5 238.5zM472 1223l76 354h278l-209 -354h-145z" />
<glyph unicode="&#x3ae;" d="M107 0v1082h272l13 -152q53 81 132 126.5t176 45.5q165 0 256.5 -104t91.5 -335v-1078h-293v1077q0 116 -40.5 165.5t-121.5 49.5q-64 0 -113 -23.5t-81 -66.5v-787h-292zM464 1224l76 354h278l-209 -354h-145z" />
<glyph unicode="&#x3af;" horiz-adv-x="681" d="M137 325v756h292v-760q0 -64 22 -89.5t69 -25.5q29 0 46 3.5t52 14.5l30 -210q-47 -20 -89.5 -27.5t-97.5 -7.5q-157 0 -240.5 85.5t-83.5 260.5zM186 1202l76 354h278l-209 -354h-145z" />
<glyph unicode="&#x3b0;" d="M113 472v610h291v-612q0 -142 50.5 -204.5t134.5 -62.5q105 0 153 105.5t48 257.5q-3 126 -29 255t-72 261h278q50 -105 82 -234.5t32 -281.5q0 -268 -113.5 -427.5t-368.5 -159.5q-229 0 -357.5 122t-128.5 371zM185 1190v204h253v-204h-253zM510 1416l42 279h282 l-176 -279h-148zM733 1190v204h254v-204h-254z" />
<glyph unicode="&#x3b1;" horiz-adv-x="1154" d="M73 511v21q0 256 111 413t312 157q87 0 153.5 -40t115.5 -114l46 133h218v-756q0 -64 17.5 -89.5t53.5 -25.5q13 0 22 1.5t19 5.5l25 -210q-35 -16 -67 -22t-74 -6q-93 0 -157.5 38t-97.5 116q-49 -75 -117 -114.5t-159 -39.5q-200 0 -310.5 146t-110.5 386zM365 511 q0 -143 47.5 -225.5t155.5 -82.5q59 0 101 22.5t69 66.5q-1 7 -1 14.5v18.5v458q-28 45 -69 69.5t-98 24.5q-107 0 -156 -95.5t-49 -249.5v-21z" />
<glyph unicode="&#x3b2;" horiz-adv-x="1233" d="M142 -403v1440q0 193 140.5 316.5t344.5 123.5q215 0 342.5 -105t127.5 -290q0 -98 -51 -179.5t-140 -129.5q121 -43 187.5 -136t66.5 -222q0 -207 -119.5 -321.5t-326.5 -114.5q-74 0 -147 19t-134 57v-458h-291zM433 264q39 -30 93.5 -45.5t121.5 -15.5 q101 0 160.5 60.5t59.5 154.5q0 108 -56 171.5t-158 63.5h-96v206h65q94 0 138 52.5t44 151.5q0 79 -46.5 134t-131.5 55q-86 0 -140 -59t-54 -156v-773z" />
<glyph unicode="&#x3b3;" horiz-adv-x="1046" d="M16 1082h305l182 -679l19 -100h6l20 100l178 679h305l-362 -1065v-434h-292v437z" />
<glyph unicode="&#x3b4;" d="M67 504v21q0 200 108 340t277 170l8 1l1 6l-291 237v177h809v-224h-404l-2 -6l244 -188q118 -87 194.5 -209.5t76.5 -277.5v-21q0 -244 -135.5 -397.5t-374.5 -153.5q-240 0 -375.5 146t-135.5 379zM358 530q0 -148 52 -237.5t168 -89.5q113 0 165.5 90t52.5 237v21 q0 144 -53 235t-167 91q-113 0 -165.5 -91.5t-52.5 -234.5v-21z" />
<glyph unicode="&#x3b5;" horiz-adv-x="1140" d="M95 306q0 90 52.5 154t151.5 97q-87 36 -136 96.5t-49 132.5q0 150 132 232.5t352 82.5q193 0 324 -89.5t126 -234.5l-2 -6h-282q0 54 -51 86t-130 32q-89 0 -133.5 -37t-44.5 -87q0 -55 46 -86.5t133 -31.5h187v-189h-187q-96 0 -147 -32t-51 -101q0 -55 51.5 -94.5 t144.5 -39.5q94 0 147 37t53 92h281l2 -6q5 -162 -134.5 -248t-332.5 -86q-220 0 -361.5 87.5t-141.5 238.5z" />
<glyph unicode="&#x3b6;" horiz-adv-x="1034" d="M75 1232v224h893v-156l-360 -432q-109 -129 -155 -224.5t-46 -221.5q0 -102 48.5 -151.5t150.5 -49.5h54q147 0 232 -73t85 -207q-2 -125 -91 -225.5t-238 -142.5l-97 193q65 28 104.5 63t39.5 88q0 40 -31 61.5t-104 21.5h-49q-193 0 -293.5 110t-100.5 272 q0 153 66 293t205 310l205 242l-2 5h-516z" />
<glyph unicode="&#x3b7;" d="M107 0v1082h272l13 -152q53 81 132 126.5t176 45.5q165 0 256.5 -104t91.5 -335v-1078h-293v1077q0 116 -40.5 165.5t-121.5 49.5q-64 0 -113 -23.5t-81 -66.5v-787h-292z" />
<glyph unicode="&#x3b8;" horiz-adv-x="1209" d="M101 567v321q0 288 132.5 438.5t359.5 150.5q226 0 359.5 -150.5t133.5 -438.5v-321q0 -289 -132.5 -438.5t-358.5 -149.5q-228 0 -361 149.5t-133 438.5zM392 539q0 -176 51.5 -256t151.5 -80q98 0 149 80t51 256v84h-403v-84zM392 840h403v78q0 173 -52 253.5 t-150 80.5q-99 0 -150 -80t-51 -254v-78z" />
<glyph unicode="&#x3b9;" horiz-adv-x="681" d="M137 325v756h292v-760q0 -64 22 -89.5t69 -25.5q29 0 46 3.5t52 14.5l30 -210q-47 -20 -89.5 -27.5t-97.5 -7.5q-157 0 -240.5 85.5t-83.5 260.5z" />
<glyph unicode="&#x3ba;" horiz-adv-x="1210" d="M129 0v1082h292v-412h87l279 412h368l-384 -507l401 -575h-374l-261 405h-116v-405h-292z" />
<glyph unicode="&#x3bb;" horiz-adv-x="1102" d="M12 0l376 1059l-54 108q-24 55 -64 90t-93 35q-13 0 -34 -2t-32 -4l-6 209q41 11 73.5 17t69.5 6q158 0 237.5 -79t124.5 -195l363 -899q18 -53 47.5 -87t70.5 -41q12 -2 24.5 -2t27.5 1l-19 -219q-32 -6 -65.5 -8.5t-66.5 -0.5q-127 9 -201.5 100.5t-118.5 222.5 l-142 392h-6l-15 -80l-182 -623h-315z" />
<glyph unicode="&#x3bc;" horiz-adv-x="1264" d="M139 -416v1498h291v-620q0 -149 45 -202.5t135 -53.5q75 0 125 27.5t78 79.5v769h292v-1082h-272l-6 67q-44 -43 -100.5 -65.5t-123.5 -22.5q-51 0 -94.5 10.5t-78.5 33.5v-439h-291z" />
<glyph unicode="&#x3bd;" horiz-adv-x="1046" d="M16 1082h305l182 -679l19 -100h6l20 100l178 679h305l-368 -1082h-279z" />
<glyph unicode="&#x3be;" horiz-adv-x="1097" d="M103 420q0 133 75 225t220 139q-99 34 -152 93.5t-53 141.5q0 69 36.5 120.5t105.5 84.5h-213v232h859v-232h-280q-109 -3 -162.5 -46t-53.5 -115q0 -75 53.5 -118.5t167.5 -43.5h151v-232h-143q-157 0 -238.5 -64.5t-81.5 -188.5q0 -92 63 -148.5t173 -56.5h121 q153 0 240 -70t87 -207q-2 -141 -86.5 -237t-241.5 -145l-82 172q59 26 101.5 62.5t42.5 96.5q0 45 -31.5 70.5t-96.5 25.5h-70q-234 0 -372.5 116.5t-138.5 324.5z" />
<glyph unicode="&#x3bf;" d="M67 530v21q0 242 135 396.5t374 154.5q240 0 376 -154t136 -397v-21q0 -244 -135.5 -397.5t-374.5 -153.5q-240 0 -375.5 153.5t-135.5 397.5zM358 530q0 -148 52 -237.5t168 -89.5q113 0 165.5 90t52.5 237v21q0 144 -53 235t-167 91q-113 0 -165.5 -91.5t-52.5 -234.5 v-21z" />
<glyph unicode="&#x3c0;" horiz-adv-x="1329" d="M78 868v214h1145v-214h-193v-547q0 -64 22 -89.5t69 -25.5q29 0 46 3.5t52 14.5l30 -210q-47 -20 -89.5 -27.5t-97.5 -7.5q-157 0 -240.5 85.5t-83.5 260.5v543h-217v-868h-291v868h-152z" />
<glyph unicode="&#x3c1;" d="M112 -416v993q0 235 133.5 380t361.5 145q229 0 354 -156.5t125 -413.5v-21q0 -240 -110 -386t-309 -146q-85 0 -150.5 30.5t-113.5 89.5v-515h-291zM402 553h1v-256q27 -46 73.5 -70t114.5 -24q106 0 155 83t49 225v21q0 154 -49 249.5t-154 95.5q-95 0 -142 -92 t-47 -231z" />
<glyph unicode="&#x3c2;" horiz-adv-x="1052" d="M62 525v30q0 237 131.5 392t368.5 155q200 0 321 -111.5t117 -302.5l-2 -6h-266q0 85 -43.5 140t-126.5 55q-112 0 -160 -91t-48 -231v-30q0 -136 65 -210t210 -95q189 -30 275.5 -94t86.5 -198q-2 -126 -91 -226t-237 -142l-97 193q65 29 104 63t39 88q0 40 -37.5 62.5 t-116.5 36.5q-249 36 -371 168t-122 354z" />
<glyph unicode="&#x3c3;" horiz-adv-x="1172" d="M65 530v21q0 234 135.5 382.5t374.5 148.5h574v-226h-258q80 -66 130 -156.5t50 -189.5v-21q0 -221 -132 -365.5t-362 -144.5q-241 0 -376.5 153.5t-135.5 397.5zM357 530q0 -148 52 -237.5t168 -89.5q105 0 154 90t49 237v21q0 135 -49.5 220t-155.5 85 q-113 0 -165.5 -85.5t-52.5 -219.5v-21z" />
<glyph unicode="&#x3c4;" horiz-adv-x="1076" d="M51 859v223h980v-223h-347v-859h-292v859h-341z" />
<glyph unicode="&#x3c5;" d="M113 472v610h291v-612q0 -142 50.5 -204.5t134.5 -62.5q105 0 153 105.5t48 257.5q-3 126 -29 255t-72 261h278q50 -105 82 -234.5t32 -281.5q0 -268 -113.5 -427.5t-368.5 -159.5q-229 0 -357.5 122t-128.5 371z" />
<glyph unicode="&#x3c6;" horiz-adv-x="1529" d="M53 592q0 144 35.5 267t93.5 223h271q-50 -131 -78.5 -252t-29.5 -238q0 -145 60.5 -241.5t198.5 -123.5l6 2v853h291q266 0 414 -164.5t148 -380.5q0 -219 -135 -370.5t-427 -180.5v-464h-291v466q-291 35 -424 200.5t-133 403.5zM901 223l6 -2q139 22 201.5 106 t62.5 210q-2 138 -71 227.5t-193 84.5l-6 -2v-624z" />
<glyph unicode="&#x3c7;" horiz-adv-x="1097" d="M23 1076q44 11 80 16.5t78 5.5q151 0 227.5 -79t119.5 -194l62 -145l6 -1l196 403h296l-358 -729l184 -426q20 -52 49 -84.5t69 -40.5q11 -2 23.5 -2.5t28.5 -0.5l-11 -222q-31 -6 -68.5 -8.5t-71.5 0.5q-111 10 -178.5 100t-117.5 224l-59 136l-6 1l-219 -446h-289 l374 770l-170 394q-23 57 -69 89.5t-104 32.5q-13 0 -34 -2t-32 -4z" />
<glyph unicode="&#x3c8;" horiz-adv-x="1526" d="M68 590v492h292v-495q0 -161 64.5 -248.5t176.5 -109.5l6 1v852h292v-854l6 -2q137 27 200.5 124.5t63.5 241.5q-3 118 -31.5 239t-77.5 251h271q57 -99 93 -222t36 -268q0 -241 -134 -407t-427 -198v-465h-292v467q-257 31 -398 179.5t-141 421.5z" />
<glyph unicode="&#x3c9;" horiz-adv-x="1760" d="M80 566q0 153 42 282.5t112 233.5h278q-64 -130 -100.5 -259.5t-40.5 -256.5q0 -158 41 -260.5t135 -102.5q80 0 129.5 68.5t49.5 218.5v346h308v-346q0 -150 48.5 -218.5t129.5 -68.5q93 0 134.5 102t41.5 261q-4 128 -40.5 257t-100.5 259h278q69 -103 111.5 -233 t42.5 -283q0 -268 -107 -427.5t-349 -159.5q-118 0 -205.5 55t-137.5 161q-51 -106 -139 -161t-204 -55q-243 0 -350 159.5t-107 427.5z" />
<glyph unicode="&#x3ca;" horiz-adv-x="681" d="M-84 1257v204h266v-204h-266zM137 325v756h292v-760q0 -64 22 -89.5t69 -25.5q29 0 46 3.5t52 14.5l30 -210q-47 -20 -89.5 -27.5t-97.5 -7.5q-157 0 -240.5 85.5t-83.5 260.5zM416 1257v204h266v-204h-266z" />
<glyph unicode="&#x3cb;" d="M113 472v610h291v-612q0 -142 50.5 -204.5t134.5 -62.5q105 0 153 105.5t48 257.5q-3 126 -29 255t-72 261h278q50 -105 82 -234.5t32 -281.5q0 -268 -113.5 -427.5t-368.5 -159.5q-229 0 -357.5 122t-128.5 371zM214 1258v204h266v-204h-266zM714 1258v204h266v-204 h-266z" />
<glyph unicode="&#x3cc;" d="M67 530v21q0 242 135 396.5t374 154.5q240 0 376 -154t136 -397v-21q0 -244 -135.5 -397.5t-374.5 -153.5q-240 0 -375.5 153.5t-135.5 397.5zM358 530q0 -148 52 -237.5t168 -89.5q113 0 165.5 90t52.5 237v21q0 144 -53 235t-167 91q-113 0 -165.5 -91.5t-52.5 -234.5 v-21zM464 1224l76 354h278l-209 -354h-145z" />
<glyph unicode="&#x3cd;" d="M113 472v610h291v-612q0 -142 50.5 -204.5t134.5 -62.5q105 0 153 105.5t48 257.5q-3 126 -29 255t-72 261h278q50 -105 82 -234.5t32 -281.5q0 -268 -113.5 -427.5t-368.5 -159.5q-229 0 -357.5 122t-128.5 371zM484 1203l76 354h278l-209 -354h-145z" />
<glyph unicode="&#x3ce;" horiz-adv-x="1760" d="M80 566q0 153 42 282.5t112 233.5h278q-64 -130 -100.5 -259.5t-40.5 -256.5q0 -158 41 -260.5t135 -102.5q80 0 129.5 68.5t49.5 218.5v346h308v-346q0 -150 48.5 -218.5t129.5 -68.5q93 0 134.5 102t41.5 261q-4 128 -40.5 257t-100.5 259h278q69 -103 111.5 -233 t42.5 -283q0 -268 -107 -427.5t-349 -159.5q-118 0 -205.5 55t-137.5 161q-51 -106 -139 -161t-204 -55q-243 0 -350 159.5t-107 427.5zM766 1203l76 354h278l-209 -354h-145z" />
<glyph unicode="&#x3d1;" horiz-adv-x="1396" d="M122 556v696l308 2v-698q0 -152 77.5 -247.5t211.5 -95.5q127 0 200.5 88t77.5 244q-194 14 -322.5 132t-128.5 291v103q0 185 107.5 295.5t279.5 110.5q171 0 271 -108.5t100 -297.5v-515q0 -261 -161 -419t-424 -158q-266 0 -431.5 164t-165.5 413zM823 966 q0 -83 45 -140t123 -65l6 2v335q0 65 -20.5 98t-59.5 33q-43 0 -68.5 -33.5t-25.5 -97.5v-132z" />
<glyph unicode="&#x3d2;" horiz-adv-x="1202" d="M-13 1461q19 11 44 15t58 4q131 0 206 -59t135 -211l149 -385l18 -90h6l19 90l148 378q61 153 136.5 215t205.5 62q32 0 57 -4t46 -15l-24 -222q-4 1 -22 3t-29 2q-37 0 -65 -26t-46 -69l-286 -672v-477h-291v489l-280 660q-20 43 -48 69t-64 26q-12 0 -29.5 -2t-20.5 -3 z" />
<glyph unicode="&#x3d6;" horiz-adv-x="1696" d="M19 881v201h1669v-201h-127q24 -72 38 -150.5t14 -164.5q0 -268 -100 -427.5t-326 -159.5q-116 0 -202.5 55t-135.5 161q-51 -106 -137.5 -161t-200.5 -55q-227 0 -326.5 159.5t-99.5 427.5q0 86 13.5 164.5t38.5 150.5h-118zM376 566q0 -159 33.5 -261t111.5 -102 q79 0 127 68.5t48 218.5v205h307v-205q0 -150 47.5 -218.5t125.5 -68.5q77 0 111.5 102t34.5 261q-3 76 -17.5 155t-38.5 160h-834q-26 -79 -40 -158t-16 -157z" />
<glyph unicode="&#x400;" horiz-adv-x="1176" d="M136 0v1456h995v-225h-703v-366h603v-225h-603v-416h705v-224h-997zM244 1820l2 6h309l197 -266h-237z" />
<glyph unicode="&#x401;" horiz-adv-x="1176" d="M136 0v1456h995v-225h-703v-366h603v-225h-603v-416h705v-224h-997zM221 1601v204h266v-204h-266zM721 1601v204h266v-204h-266z" />
<glyph unicode="&#x402;" horiz-adv-x="1532" d="M30 1231v225h1136v-225h-476v-371q69 16 129.5 25t116.5 9q248 0 393 -116.5t145 -336.5q0 -199 -132 -327.5t-413 -125.5l-5 2l-1 205q153 0 206 64.5t54 168.5q0 107 -65 172.5t-182 65.5q-67 0 -126.5 -6t-119.5 -17v-643h-293v1231h-367z" />
<glyph unicode="&#x403;" horiz-adv-x="1141" d="M136 0v1456h949v-225h-657v-1231h-292zM463 1560l199 266h309l2 -6l-277 -260h-233z" />
<glyph unicode="&#x404;" horiz-adv-x="1290" d="M110 584v289q0 265 160 435t416 170q270 0 422 -138.5t148 -377.5l-2 -6h-284q0 144 -69 220.5t-215 76.5q-131 0 -208 -106.5t-77 -271.5v-31h437v-226h-437v-34q0 -167 81 -273.5t219 -106.5q137 0 202.5 73.5t65.5 218.5h283l2 -6q4 -235 -143.5 -372.5t-409.5 -137.5 q-263 0 -427 169t-164 435z" />
<glyph unicode="&#x405;" horiz-adv-x="1299" d="M90 445l2 6h284q0 -130 79.5 -190.5t221.5 -60.5q119 0 182 49t63 131q0 84 -59.5 135t-208.5 96q-260 75 -393 178t-133 282t152.5 292.5t389.5 113.5q240 0 391 -127.5t146 -314.5l-2 -6h-283q0 101 -67.5 163.5t-189.5 62.5q-117 0 -181 -52t-64 -133 q0 -74 68.5 -121.5t236.5 -100.5q241 -67 365 -177t124 -289q0 -187 -147.5 -295t-389.5 -108q-238 0 -415 122.5t-172 343.5z" />
<glyph unicode="&#x406;" horiz-adv-x="601" d="M154 0v1456h292v-1456h-292z" />
<glyph unicode="&#x407;" horiz-adv-x="601" d="M-81 1601v204h266v-204h-266zM154 0v1456h292v-1456h-292zM419 1601v204h266v-204h-266z" />
<glyph unicode="&#x408;" horiz-adv-x="1169" d="M63 417l2 6h284q0 -115 55 -167.5t148 -52.5q81 0 137.5 62.5t56.5 171.5v1019h291v-1019q0 -211 -137.5 -334.5t-347.5 -123.5q-228 0 -361 111t-128 327z" />
<glyph unicode="&#x409;" horiz-adv-x="2169" d="M42 0v224h40q150 0 204.5 123.5t54.5 445.5v663h970v-509h250q250 0 398 -132.5t148 -340.5q0 -210 -148 -342t-398 -132h-542v1231h-386v-438q0 -421 -135.5 -607t-412.5 -186h-43zM1311 224h250q122 0 188.5 73t66.5 179q0 102 -66.5 174t-188.5 72h-250v-498z" />
<glyph unicode="&#x40a;" horiz-adv-x="2171" d="M136 0v1456h292v-615h593v615h292v-527h250q251 0 399 -129t148 -334q0 -206 -148.5 -336t-398.5 -130h-542v616h-593v-616h-292zM1313 228h250q123 0 189 69t66 171q0 99 -66 167.5t-189 68.5h-250v-476z" />
<glyph unicode="&#x40b;" horiz-adv-x="1587" d="M37 1231v225h1113v-225h-471v-323q59 9 118.5 14.5t107.5 5.5q267 0 414 -117t147 -359v-452h-291v452q0 141 -64.5 196t-205.5 55q-48 0 -109 -5.5t-117 -14.5v-683h-293v1231h-349z" />
<glyph unicode="&#x40c;" horiz-adv-x="1323" d="M136 0v1456h292v-595h127l386 595h357l-490 -678l529 -778h-356l-391 608h-162v-608h-292zM454 1560l199 266h309l2 -6l-277 -260h-233z" />
<glyph unicode="&#x40d;" horiz-adv-x="1436" d="M126 0v1456h291v-970l6 -1l587 971h293v-1456h-293v971l-6 1l-587 -972h-291zM355 1820l2 6h309l197 -266h-237z" />
<glyph unicode="&#x40e;" horiz-adv-x="1293" d="M36 1456h315l298 -647l23 -77h6l275 724h309l-497 -1180q-64 -143 -149.5 -220t-245.5 -77q-25 0 -57 1.5t-48 3.5l-2 223q11 -2 38 -3t41 -1q80 0 119.5 35t65.5 106l22 55zM323 1890l2 6h213q0 -53 30.5 -87t95.5 -34q63 0 93.5 34t30.5 87h214l2 -6 q5 -127 -88.5 -207.5t-251.5 -80.5q-159 0 -253 80.5t-88 207.5z" />
<glyph unicode="&#x40f;" horiz-adv-x="1437" d="M123 0v1456h291v-1232h594v1232h292v-1456h-430v-360h-292v360h-455z" />
<glyph unicode="&#x410;" horiz-adv-x="1311" d="M12 0l501 1456h299l499 -1456h-295l-99 314h-511l-99 -314h-295zM478 543h367l-180 572h-6z" />
<glyph unicode="&#x411;" horiz-adv-x="1283" d="M119 0v1456h949v-225h-644v-287h250q251 0 399 -131t148 -339q0 -210 -148.5 -342t-398.5 -132h-555zM424 224h250q123 0 189.5 73t66.5 179q0 102 -66.5 172.5t-189.5 70.5h-250v-495z" />
<glyph unicode="&#x412;" horiz-adv-x="1314" d="M136 0v1456h492q257 0 401 -100t144 -299q0 -101 -53.5 -180.5t-155.5 -119.5q131 -28 196.5 -120t65.5 -213q0 -209 -138 -316.5t-391 -107.5h-561zM428 224h269q116 0 177 50.5t61 149.5q0 107 -52 163.5t-164 56.5h-291v-420zM428 846h210q117 0 180 48t63 140 q0 101 -63.5 149t-189.5 48h-200v-385z" />
<glyph unicode="&#x413;" horiz-adv-x="1141" d="M136 0v1456h949v-225h-657v-1231h-292z" />
<glyph unicode="&#x414;" horiz-adv-x="1533" d="M27 224h112q78 67 136.5 211.5t68.5 424.5l40 596h947v-1232h173l-28 -582h-264v358h-893v-358h-269zM471 224h569v1007h-379l-25 -371q-9 -221 -52 -376t-113 -260z" />
<glyph unicode="&#x415;" horiz-adv-x="1176" d="M136 0v1456h995v-225h-703v-366h603v-225h-603v-416h705v-224h-997z" />
<glyph unicode="&#x416;" horiz-adv-x="2032" d="M18 0l458 785l-434 671h361l328 -595h151v595h291v-595h147l321 595h360l-427 -669l451 -787h-363l-319 608h-170v-608h-291v608h-174l-326 -608h-364z" />
<glyph unicode="&#x417;" horiz-adv-x="1345" d="M93 398l1 6h284q0 -85 76.5 -143t196.5 -58q142 0 224.5 58.5t82.5 149.5q0 115 -73.5 168.5t-217.5 53.5h-197v219h197q137 0 203 54t66 151q0 84 -73 139.5t-212 55.5q-109 0 -181 -52.5t-72 -134.5h-283l-1 6q-6 181 151 293.5t386 112.5q266 0 421 -108t155 -308 q0 -100 -65 -183t-179 -130q129 -43 198 -129t69 -211q0 -201 -166 -315t-433 -114q-230 0 -397 107t-161 312z" />
<glyph unicode="&#x418;" horiz-adv-x="1436" d="M126 0v1456h291v-970l6 -1l587 971h293v-1456h-293v971l-6 1l-587 -972h-291z" />
<glyph unicode="&#x419;" horiz-adv-x="1436" d="M126 0v1456h291v-970l6 -1l587 971h293v-1456h-293v971l-6 1l-587 -972h-291zM375 1890l2 6h213q0 -53 30.5 -87t95.5 -34q63 0 93.5 34t30.5 87h214l2 -6q5 -127 -88.5 -207.5t-251.5 -80.5q-159 0 -253 80.5t-88 207.5z" />
<glyph unicode="&#x41a;" horiz-adv-x="1323" d="M136 0v1456h292v-595h127l386 595h357l-490 -678l529 -778h-356l-391 608h-162v-608h-292z" />
<glyph unicode="&#x41b;" horiz-adv-x="1447" d="M42 0v224h40q137 0 184 122t47 447v663h998v-1456h-292v1231h-414v-438q0 -422 -127.5 -607.5t-392.5 -185.5h-43z" />
<glyph unicode="&#x41c;" horiz-adv-x="1787" d="M136 0v1456h381l371 -1073h6l374 1073h382v-1456h-292v434l28 643l-6 1l-390 -1078h-196l-388 1074l-6 -1l28 -639v-434h-292z" />
<glyph unicode="&#x41d;" horiz-adv-x="1450" d="M136 0v1456h292v-626h594v626h291v-1456h-291v605h-594v-605h-292z" />
<glyph unicode="&#x41e;" horiz-adv-x="1399" d="M92 597v262q0 267 167.5 442.5t436.5 175.5q271 0 441 -175.5t170 -442.5v-262q0 -268 -169.5 -443t-440.5 -175q-269 0 -437 175t-168 443zM383 597q0 -173 83 -282t231 -109q150 0 234 109t84 282v264q0 170 -85 279t-234 109t-231 -108.5t-82 -279.5v-264z" />
<glyph unicode="&#x41f;" horiz-adv-x="1450" d="M136 0v1456h1178v-1456h-292v1231h-594v-1231h-292z" />
<glyph unicode="&#x420;" horiz-adv-x="1334" d="M136 0v1456h580q251 0 395 -128t144 -337t-144 -336t-395 -127h-288v-528h-292zM428 753h288q122 0 185 66.5t63 169.5q0 105 -62.5 173.5t-185.5 68.5h-288v-478z" />
<glyph unicode="&#x421;" horiz-adv-x="1309" d="M93 583v289q0 265 160 435t416 170q270 0 422 -138.5t148 -377.5l-2 -6h-284q0 144 -69 220.5t-215 76.5q-131 0 -208 -106.5t-77 -271.5v-291q0 -167 81 -273.5t219 -106.5q137 0 202.5 73.5t65.5 218.5h283l2 -6q4 -235 -143.5 -372.5t-409.5 -137.5q-263 0 -427 169 t-164 435z" />
<glyph unicode="&#x422;" horiz-adv-x="1169" d="M28 1231v225h1114v-225h-412v-1231h-292v1231h-410z" />
<glyph unicode="&#x423;" horiz-adv-x="1293" d="M36 1456h315l298 -647l23 -77h6l275 724h309l-497 -1180q-64 -143 -149.5 -220t-245.5 -77q-25 0 -57 1.5t-48 3.5l-2 223q11 -2 38 -3t41 -1q80 0 119.5 35t65.5 106l22 55z" />
<glyph unicode="&#x424;" horiz-adv-x="1675" d="M73 719q0 272 172 439t445 167h6v191h292v-191h3q273 0 445 -166t172 -438q0 -268 -172.5 -430.5t-444.5 -162.5h-3v-188h-292v188h-6q-274 0 -445.5 162t-171.5 429zM360 719q0 -170 88 -261t242 -91h6v718h-6q-154 0 -242 -95.5t-88 -270.5zM988 367h5q152 0 240 92.5 t88 261.5q0 175 -87.5 269.5t-240.5 94.5h-5v-718z" />
<glyph unicode="&#x425;" horiz-adv-x="1303" d="M31 0l443 734l-432 722h338l269 -516l273 516h340l-432 -722l457 -734h-353l-281 525l-281 -525h-341z" />
<glyph unicode="&#x426;" horiz-adv-x="1569" d="M150 0v1456h292v-1231h594v1231h292v-1231h177v-584h-292v359h-1063z" />
<glyph unicode="&#x427;" horiz-adv-x="1423" d="M139 1003v453h292v-453q0 -142 63.5 -196t205.5 -54q62 0 145.5 8.5t149.5 24.5v670h293v-1456h-293v561q-66 -16 -148 -24.5t-147 -8.5q-268 0 -414.5 116t-146.5 359z" />
<glyph unicode="&#x428;" horiz-adv-x="1961" d="M133 0v1456h292v-1232h412v1232h291v-1232h408v1232h292v-1456h-1695z" />
<glyph unicode="&#x429;" horiz-adv-x="2094" d="M133 0v1456h292v-1232h412v1232h291v-1232h408v1232h292v-1232h202l-20 -574h-271v350h-1606z" />
<glyph unicode="&#x42a;" horiz-adv-x="1579" d="M26 1231v225h694v-539h250q253 0 400 -123.5t147 -329.5q0 -209 -148 -336.5t-399 -127.5h-542v1231h-402zM720 224h250q123 0 189.5 68.5t66.5 173.5q0 100 -66 163t-190 63h-250v-468z" />
<glyph unicode="&#x42b;" horiz-adv-x="1785" d="M149 0v1456h292v-512h250q251 0 399 -131t148 -339q0 -210 -148.5 -342t-398.5 -132h-542zM441 224h250q123 0 189.5 73t66.5 179q0 102 -66.5 172.5t-189.5 70.5h-250v-495zM1369 0v1456h292v-1456h-292z" />
<glyph unicode="&#x42c;" horiz-adv-x="1283" d="M132 0v1456h292v-539h250q253 0 400 -123.5t147 -329.5q0 -209 -148 -336.5t-399 -127.5h-542zM424 224h250q123 0 189.5 68.5t66.5 173.5q0 100 -66 163t-190 63h-250v-468z" />
<glyph unicode="&#x42d;" horiz-adv-x="1288" d="M91 475l2 6h283q0 -142 60.5 -209.5t192.5 -67.5q129 0 199 104.5t70 273.5v43h-447v225h447v23q0 168 -70 274t-199 106q-131 0 -191 -68.5t-60 -210.5h-284l-2 6q-5 232 137.5 365t399.5 133q253 0 407.5 -169t154.5 -436v-289q0 -268 -154.5 -436t-407.5 -168 q-259 0 -401 128.5t-137 366.5z" />
<glyph unicode="&#x42e;" horiz-adv-x="1935" d="M154 0v1456h292v-627h126v30q0 267 167.5 442.5t436.5 175.5q271 0 441 -175.5t170 -442.5v-262q0 -268 -169.5 -443t-440.5 -175q-269 0 -437 175t-168 443v7h-126v-604h-292zM863 597q0 -173 83 -282t231 -109q150 0 234 109t84 282v264q0 170 -85 279t-234 109 t-231 -108.5t-82 -279.5v-264z" />
<glyph unicode="&#x42f;" horiz-adv-x="1229" d="M-17 0l315 624q-115 61 -173 156.5t-58 228.5q0 215 142 331t394 116h504v-1456h-292v534h-250l-267 -534h-315zM359 997q0 -113 63 -181.5t181 -68.5h212v484h-212q-121 0 -182.5 -60.5t-61.5 -173.5z" />
<glyph unicode="&#x430;" horiz-adv-x="1100" d="M55 305q0 159 122.5 246.5t357.5 87.5h163v86q0 78 -41 121t-121 43q-71 0 -109.5 -34.5t-38.5 -95.5l-282 1l-1 6q-7 137 119 236.5t331 99.5q194 0 315 -98.5t121 -280.5v-447q0 -76 11.5 -143t36.5 -133h-292q-16 37 -27.5 78t-16.5 84q-45 -79 -118.5 -131 t-175.5 -52q-170 0 -262 87.5t-92 238.5zM346 315q0 -54 36 -87t98 -33q77 0 137 38t81 88v153h-163q-93 0 -141 -46.5t-48 -112.5z" />
<glyph unicode="&#x431;" horiz-adv-x="1167" d="M84 497v145q1 356 139 549t361 237q97 16 143.5 42.5t46.5 86.5h226l3 -6q4 -194 -89 -257t-317 -98q-112 -19 -178.5 -88t-85.5 -192l4 -5q55 49 128.5 80t153.5 31q228 0 357 -140.5t129 -363.5v-21q0 -230 -135.5 -374t-374.5 -144q-240 0 -375.5 144t-135.5 374z M376 497q0 -133 52 -213.5t167 -80.5q113 0 165.5 80.5t52.5 213.5v21q0 123 -53 201t-167 78q-113 0 -165 -78t-52 -201v-21z" />
<glyph unicode="&#x432;" d="M127 0v1082h452q216 0 336.5 -76t120.5 -226q0 -76 -50.5 -135t-143.5 -90q123 -24 186.5 -90.5t63.5 -155.5q0 -153 -114.5 -231t-328.5 -78h-522zM419 222h230q77 0 114 28.5t37 84.5t-35.5 86t-115.5 30h-230v-229zM419 641h168q81 0 119.5 26t38.5 78q0 59 -41 86.5 t-125 27.5h-160v-218z" />
<glyph unicode="&#x433;" horiz-adv-x="855" d="M107 0v1082h739v-226h-447v-856h-292z" />
<glyph unicode="&#x434;" horiz-adv-x="1295" d="M33 226h94q100 103 134.5 203.5t39.5 287.5l5 365h798v-858h156l-20 -548h-271v324h-639v-324h-272zM461 225h352v624h-219l-2 -132q-7 -161 -40.5 -282.5t-90.5 -209.5z" />
<glyph unicode="&#x435;" horiz-adv-x="1084" d="M77 510v40q0 241 132.5 397t355.5 155q219 0 340 -132t121 -357v-159h-646l-2 -6q8 -107 71.5 -176t172.5 -69q97 0 161 19.5t140 61.5l79 -180q-66 -54 -173 -89.5t-238 -35.5q-234 0 -374 150t-140 381zM379 652l3 -5h358v26q0 93 -43.5 148.5t-131.5 55.5 q-81 0 -128 -62t-58 -163z" />
<glyph unicode="&#x436;" horiz-adv-x="1754" d="M25 0l350 587l-332 495h368l217 -408h106v408h291v-408h107l218 408h368l-332 -495l349 -587h-374l-209 408h-127v-408h-291v408h-126l-209 -408h-374z" />
<glyph unicode="&#x437;" horiz-adv-x="1053" d="M76 314l1 6h283q0 -56 46 -93t130 -37q81 0 121 39t40 96q0 70 -40 102.5t-123 32.5h-156v186h156q74 0 109 31t35 88q0 52 -33.5 88t-109.5 36q-71 0 -114.5 -32t-43.5 -86h-283l-2 6q-6 145 118 234.5t310 89.5q208 0 328.5 -82t120.5 -233q0 -73 -44 -133.5 t-122 -95.5q90 -32 137.5 -95.5t47.5 -155.5q0 -152 -129.5 -239t-338.5 -87q-185 0 -317.5 86t-126.5 248z" />
<glyph unicode="&#x438;" d="M107 0v1082h292v-658l6 -1l353 659h291v-1082h-291v660l-6 1l-353 -661h-292z" />
<glyph unicode="&#x439;" d="M107 0v1082h292v-658l6 -1l353 659h291v-1082h-291v660l-6 1l-353 -661h-292zM238 1547l2 6h213q0 -53 30.5 -87t95.5 -34q63 0 93.5 34t30.5 87h214l2 -6q5 -127 -88.5 -207.5t-251.5 -80.5q-159 0 -253 80.5t-88 207.5z" />
<glyph unicode="&#x43a;" horiz-adv-x="1148" d="M129 0v1082h292v-412h102l233 412h369l-353 -510l385 -572h-389l-235 405h-112v-405h-292z" />
<glyph unicode="&#x43b;" horiz-adv-x="1149" d="M15 230l31 1q100 0 130 82t30 308v461h843v-1082h-291v856h-260v-235q0 -320 -98 -470.5t-335 -150.5h-47z" />
<glyph unicode="&#x43c;" horiz-adv-x="1557" d="M129 0v1082h362l275 -742h6l279 742h365v-1082h-291v646l-6 1l-251 -647h-196l-245 633l-6 -1v-632h-292z" />
<glyph unicode="&#x43d;" d="M107 0v1082h292v-438h356v438h292v-1082h-292v420h-356v-420h-292z" />
<glyph unicode="&#x43e;" d="M67 530v21q0 242 135 396.5t374 154.5q240 0 376 -154t136 -397v-21q0 -244 -135.5 -397.5t-374.5 -153.5q-240 0 -375.5 153.5t-135.5 397.5zM358 530q0 -148 52 -237.5t168 -89.5q113 0 165.5 90t52.5 237v21q0 144 -53 235t-167 91q-113 0 -165.5 -91.5t-52.5 -234.5 v-21z" />
<glyph unicode="&#x43f;" d="M107 0v1082h942v-1082h-292v856h-358v-856h-292z" />
<glyph unicode="&#x440;" d="M112 -416v1498h263l17 -128q48 71 115.5 109.5t157.5 38.5q201 0 312 -157t111 -413v-21q0 -240 -111 -386t-310 -146q-85 0 -151 31.5t-113 92.5v-519h-291zM403 297q27 -46 73.5 -70t114.5 -24q106 0 155.5 83t49.5 225v21q0 153 -51 248t-156 95q-66 0 -112.5 -27 t-73.5 -77v-474z" />
<glyph unicode="&#x441;" horiz-adv-x="1060" d="M62 525v30q0 239 130.5 393t372.5 154q200 0 322.5 -114t118.5 -300l-2 -6h-266q0 84 -46 139.5t-127 55.5q-116 0 -163.5 -90t-47.5 -232v-30q0 -145 47.5 -233.5t164.5 -88.5q78 0 125 45.5t47 121.5h265l3 -6q4 -164 -123.5 -274.5t-316.5 -110.5q-242 0 -373 153 t-131 393z" />
<glyph unicode="&#x442;" horiz-adv-x="1070" d="M48 859v223h980v-223h-346v-859h-293v859h-341z" />
<glyph unicode="&#x443;" horiz-adv-x="1046" d="M5 1082h314l183 -628l12 -60h6l207 688h314l-439 -1244q-46 -116 -125 -195.5t-237 -79.5q-37 0 -68.5 6t-76.5 17l34 213q13 -2 28 -4t27 -2q72 0 111 35.5t60 88.5l34 84z" />
<glyph unicode="&#x444;" horiz-adv-x="1497" d="M68 511v21q0 256 104.5 413t295.5 157q37 0 69.5 -7t62.5 -19v484h291v-486q30 13 64 20.5t73 7.5q191 0 296 -156.5t105 -413.5v-21q0 -240 -105 -386t-294 -146q-39 0 -74 7t-65 20v-422h-291v420q-30 -12 -64 -18.5t-70 -6.5q-190 0 -294 146t-104 386zM359 511 q0 -143 42 -225.5t139 -82.5q15 0 30 1t30 4v663q-14 3 -28.5 4.5t-29.5 1.5q-96 0 -139.5 -95.5t-43.5 -249.5v-21zM891 209q14 -3 29.5 -4.5t33.5 -1.5q96 0 139.5 83t43.5 225v21q0 154 -45 249.5t-140 95.5q-18 0 -33 -2t-28 -5v-661z" />
<glyph unicode="&#x445;" horiz-adv-x="1046" d="M19 0l337 547l-327 535h328l162 -344h6l166 344h330l-326 -535l337 -547h-329l-177 359l-177 -359h-330z" />
<glyph unicode="&#x446;" horiz-adv-x="1247" d="M107 0v1082h292v-858h358v858h292v-858h156v-582h-291v358h-807z" />
<glyph unicode="&#x447;" horiz-adv-x="1147" d="M103 742v340h292v-340q0 -107 47 -148t159 -41q37 0 73.5 4t74.5 12v513h292v-1082h-292v343q-37 -8 -75.5 -11.5t-72.5 -3.5q-239 0 -368.5 102t-129.5 312z" />
<glyph unicode="&#x448;" horiz-adv-x="1691" d="M107 0v1082h292v-858h294v858h293v-858h294v858h292v-1082h-1465z" />
<glyph unicode="&#x449;" horiz-adv-x="1855" d="M107 0v1082h292v-858h294v858h293v-858h294v858h292v-853h223v-589h-292v360h-1396z" />
<glyph unicode="&#x44a;" horiz-adv-x="1346" d="M34 856v226h600v-323h203q219 0 344 -104.5t125 -276.5q0 -168 -125.5 -273t-343.5 -105h-495v856h-308zM634 223h203q90 0 134 43.5t44 110.5q0 68 -44 113t-134 45h-203v-312z" />
<glyph unicode="&#x44b;" horiz-adv-x="1703" d="M149 0v1082h293v-350h203q218 0 343 -100.5t125 -263.5q0 -165 -125 -266.5t-343 -101.5h-496zM442 223h203q89 0 133 40t44 103q0 61 -44 101.5t-133 40.5h-203v-285zM1215 0v1082h292v-1082h-292z" />
<glyph unicode="&#x44c;" horiz-adv-x="1143" d="M129 0v1082h293v-350h203q218 0 343 -100.5t125 -263.5q0 -165 -125 -266.5t-343 -101.5h-496zM422 223h203q89 0 133 40t44 103q0 61 -44 101.5t-133 40.5h-203v-285z" />
<glyph unicode="&#x44d;" horiz-adv-x="1064" d="M68 393l2 6h266q0 -85 45 -140.5t125 -55.5q96 0 144.5 69.5t56.5 180.5l-3 5h-281v175h280l2 5q-8 106 -56.5 172.5t-143.5 66.5q-77 0 -123 -46t-46 -120h-266l-2 6q-5 163 122 274t315 111q237 0 369 -154.5t132 -392.5v-30q0 -238 -132 -392t-368 -154 q-199 0 -321 113.5t-117 300.5z" />
<glyph unicode="&#x44e;" horiz-adv-x="1662" d="M133 0v1082h292v-419h156q30 198 161 318.5t340 120.5q240 0 376 -154t136 -397v-21q0 -244 -135.5 -397.5t-374.5 -153.5q-216 0 -348.5 125.5t-157.5 333.5h-153v-438h-292zM864 530q0 -148 52 -237.5t168 -89.5q113 0 165.5 90t52.5 237v21q0 144 -53 235t-167 91 q-113 0 -165.5 -91.5t-52.5 -234.5v-21z" />
<glyph unicode="&#x44f;" d="M51 0l239 427q-99 44 -152.5 121t-53.5 175q0 158 125.5 258.5t338.5 100.5h476v-1082h-290v379h-176l-212 -379h-295zM376 715q0 -56 43.5 -97.5t123.5 -41.5h191v283h-186q-82 0 -127 -44t-45 -100z" />
<glyph unicode="&#x450;" horiz-adv-x="1084" d="M77 510v40q0 241 132.5 397t355.5 155q219 0 340 -132t121 -357v-159h-646l-2 -6q8 -107 71.5 -176t172.5 -69q97 0 161 19.5t140 61.5l79 -180q-66 -54 -173 -89.5t-238 -35.5q-234 0 -374 150t-140 381zM186 1499l2 6h309l197 -266h-237zM379 652l3 -5h358v26 q0 93 -43.5 148.5t-131.5 55.5q-81 0 -128 -62t-58 -163z" />
<glyph unicode="&#x451;" horiz-adv-x="1084" d="M77 510v40q0 241 132.5 397t355.5 155q219 0 340 -132t121 -357v-159h-646l-2 -6q8 -107 71.5 -176t172.5 -69q97 0 161 19.5t140 61.5l79 -180q-66 -54 -173 -89.5t-238 -35.5q-234 0 -374 150t-140 381zM163 1280v204h266v-204h-266zM379 652l3 -5h358v26 q0 93 -43.5 148.5t-131.5 55.5q-81 0 -128 -62t-58 -163zM663 1280v204h266v-204h-266z" />
<glyph unicode="&#x452;" d="M-15 1208v181h120v171h292v-171h259v-181h-259v-263q51 74 125 115.5t164 41.5q169 0 265.5 -112.5t96.5 -347.5v-172h1v-511q0 -190 -101 -293t-281 -103q-40 0 -74 4t-70 13l14 220q22 -6 47 -9t52 -3q57 0 88.5 44.5t31.5 126.5v685q0 126 -44.5 178.5t-132.5 52.5 q-60 0 -106 -21.5t-76 -60.5v-793h-292v1208h-120z" />
<glyph unicode="&#x453;" horiz-adv-x="855" d="M107 0v1082h739v-226h-447v-856h-292zM274 1217l199 266h309l2 -6l-277 -260h-233z" />
<glyph unicode="&#x454;" horiz-adv-x="1064" d="M72 525v30q0 239 130.5 393t372.5 154q200 0 322.5 -114t118.5 -300l-2 -6h-266q0 84 -46 139.5t-127 55.5q-102 0 -151 -71t-54 -184l3 -5h287v-175h-285l-2 -5q7 -106 55 -170t148 -64q78 0 125 45.5t47 121.5h265l3 -6q4 -164 -123.5 -274.5t-316.5 -110.5 q-242 0 -373 153t-131 393z" />
<glyph unicode="&#x455;" horiz-adv-x="1056" d="M64 338l2 6h267q3 -87 57 -126t141 -39q81 0 123.5 32t42.5 87q0 48 -46.5 83t-172.5 62q-192 39 -289.5 115.5t-97.5 208.5q0 140 117.5 237.5t314.5 97.5q207 0 329.5 -97t117.5 -245l-2 -6h-282q0 65 -41.5 106t-121.5 41q-71 0 -111.5 -34.5t-40.5 -86.5 q0 -50 42.5 -82t172.5 -57q200 -40 297 -117.5t97 -213.5q0 -146 -125 -238.5t-330 -92.5q-216 0 -341.5 109.5t-119.5 249.5z" />
<glyph unicode="&#x456;" horiz-adv-x="547" d="M127 0v1082h292v-1082h-292zM127 1341v219h292v-219h-292z" />
<glyph unicode="&#x457;" horiz-adv-x="562" d="M-101 1258v204h266v-204h-266zM133 0v1082h292v-1082h-292zM399 1258v204h266v-204h-266z" />
<glyph unicode="&#x458;" horiz-adv-x="543" d="M-98 -420l14 223q23 -6 46 -9t49 -3q59 0 91 41.5t32 127.5v1122h293v-1122q0 -190 -101 -293.5t-281 -103.5q-40 0 -73 4t-70 13zM128 1343v217h293v-217h-293z" />
<glyph unicode="&#x459;" horiz-adv-x="1771" d="M25 227h31q90 0 134 96t44 298v461h816v-349h203q218 0 343.5 -101t125.5 -264q0 -165 -125.5 -266.5t-343.5 -101.5h-495v856h-232v-235q0 -316 -106 -468.5t-345 -152.5h-47zM1050 222h203q90 0 134 42t44 106q0 60 -44 99t-134 39h-203v-286z" />
<glyph unicode="&#x45a;" horiz-adv-x="1768" d="M107 0v1082h292v-417h356v417h292v-350h203q218 0 343 -100.5t125 -263.5q0 -165 -125 -266.5t-343 -101.5h-495v441h-356v-441h-292zM1047 222h203q89 0 133 42t44 106q0 60 -44 99t-133 39h-203v-286z" />
<glyph unicode="&#x45b;" d="M29 1211v181h76v168h292v-168h303v-181h-303v-266q51 74 125 115.5t164 41.5q169 0 265.5 -112.5t96.5 -347.5v-642h-292v644q0 126 -44.5 178.5t-132.5 52.5q-60 0 -106 -21.5t-76 -60.5v-793h-292v1211h-76z" />
<glyph unicode="&#x45c;" horiz-adv-x="1148" d="M129 0v1082h292v-412h102l233 412h369l-353 -510l385 -572h-389l-235 405h-112v-405h-292zM422 1216l199 266h309l2 -6l-277 -260h-233z" />
<glyph unicode="&#x45d;" d="M107 0v1082h292v-658l6 -1l353 659h291v-1082h-291v660l-6 1l-353 -661h-292zM218 1477l2 6h309l197 -266h-237z" />
<glyph unicode="&#x45e;" horiz-adv-x="1046" d="M5 1082h314l183 -628l12 -60h6l207 688h314l-439 -1244q-46 -116 -125 -195.5t-237 -79.5q-37 0 -68.5 6t-76.5 17l34 213q13 -2 28 -4t27 -2q72 0 111 35.5t60 88.5l34 84zM183 1547l2 6h213q0 -53 30.5 -87t95.5 -34q63 0 93.5 34t30.5 87h214l2 -6 q5 -127 -88.5 -207.5t-251.5 -80.5q-159 0 -253 80.5t-88 207.5z" />
<glyph unicode="&#x45f;" d="M107 0v1082h292v-858h358v858h292v-1082h-325v-358h-291v358h-326z" />
<glyph unicode="&#x460;" horiz-adv-x="1930" d="M123 449v1007h292v-1007q0 -124 51.5 -185t143.5 -61q96 0 149.5 61t53.5 185v1007h294v-1007q0 -124 53 -185t147 -61q93 0 145.5 61t52.5 185v1007h292v-1007q0 -225 -136 -347.5t-354 -122.5q-111 0 -201 40t-147 119q-58 -78 -148.5 -118.5t-200.5 -40.5 q-218 0 -352.5 122.5t-134.5 347.5z" />
<glyph unicode="&#x461;" horiz-adv-x="1684" d="M99 435v647h293v-647q0 -118 37.5 -175t109.5 -57q82 0 126 57t44 175v647h293v-647q0 -119 40 -175.5t120 -56.5q73 0 111.5 57t38.5 175v647h292v-647q0 -220 -121 -338t-321 -118q-99 0 -177.5 35t-130.5 105q-55 -70 -135.5 -105t-179.5 -35q-199 0 -319.5 118 t-120.5 338z" />
<glyph unicode="&#x462;" horiz-adv-x="1283" d="M-26 1090v181h158v185h292v-185h221v-181h-221v-146h250q251 0 399 -131t148 -339q0 -210 -148.5 -342t-398.5 -132h-542v1090h-158zM424 224h250q123 0 189.5 73t66.5 179q0 102 -66.5 172.5t-189.5 70.5h-250v-495z" />
<glyph unicode="&#x463;" horiz-adv-x="1143" d="M-26 1081v180h155v300h293v-300h255v-180h-255v-295h203q218 0 343 -108t125 -283q0 -177 -125.5 -286t-342.5 -109h-496v1081h-155zM422 223h203q89 0 133 47.5t44 122.5q0 72 -44 120.5t-133 48.5h-203v-339z" />
<glyph unicode="&#x464;" horiz-adv-x="1828" d="M129 0v1456h292v-599h184v16q0 265 160 435t416 170q265 0 408 -135.5t162 -380.5l-2 -6h-284q-12 148 -76.5 222.5t-207.5 74.5q-131 0 -208 -106.5t-77 -271.5v-18h437v-225h-437v-48q0 -167 81 -273.5t219 -106.5q134 0 195 71.5t73 220.5h283l2 -6 q-13 -239 -154 -374.5t-399 -135.5q-263 0 -427 169t-164 435v48h-184v-632h-292z" />
<glyph unicode="&#x465;" horiz-adv-x="1546" d="M116 0v1082h292v-450h135q20 209 148.5 339.5t350.5 130.5q200 0 322.5 -114t118.5 -300l-2 -6h-266q0 84 -46 139.5t-127 55.5q-99 0 -147.5 -67t-55.5 -173l2 -5h315v-180h-315l-2 -5q5 -110 53.5 -177t150.5 -67q78 0 125 45.5t47 121.5h265l3 -6 q4 -164 -123.5 -274.5t-316.5 -110.5q-223 0 -352 130.5t-149 342.5h-134v-452h-292z" />
<glyph unicode="&#x466;" horiz-adv-x="1346" d="M18 0l514 1456h300l511 -1456h-306l-129 390h-111v-390h-245v390h-100l-129 -390h-305zM518 591h324l-159 480h-6z" />
<glyph unicode="&#x467;" horiz-adv-x="1146" d="M7 0l408 1082h300l409 -1082h-297l-94 271h-77v-271h-191v271h-69l-92 -271h-297zM459 456h211l-76 221l-27 113h-6l-27 -113z" />
<glyph unicode="&#x468;" horiz-adv-x="1919" d="M173 0v1456h292v-865h291l305 865h300l511 -1456h-306l-129 390h-111v-390h-245v390h-100l-129 -390h-305l137 389h-219v-389h-292zM1047 591h324l-159 480h-6z" />
<glyph unicode="&#x469;" horiz-adv-x="1638" d="M166 0v1082h292v-627h167l237 627h300l409 -1082h-297l-94 271h-77v-271h-191v271h-69l-92 -271h-585zM458 27l6 -1l92 246h-98v-245zM906 456h211l-76 221l-27 113h-6l-27 -113z" />
<glyph unicode="&#x46a;" horiz-adv-x="1784" d="M113 0v344q0 242 134 350.5t395 110.5l-374 651h1282l-375 -652q244 -8 370 -117t126 -343v-344h-292v344q0 131 -58 182t-186 51h-84v-577h-292v577h-110q-129 0 -186.5 -51t-57.5 -182v-344h-292zM707 1228l202 -389l202 389h-404z" />
<glyph unicode="&#x46b;" horiz-adv-x="1501" d="M110 0v179q0 206 99 309t292 121l-275 473h1065l-276 -474q184 -21 280 -124t96 -305v-179h-291v179q0 123 -44.5 171t-143.5 48h-11v-398h-292v398h-20q-100 0 -144 -48t-44 -171v-179h-291zM632 894l123 -259h6l123 259h-252z" />
<glyph unicode="&#x46c;" horiz-adv-x="2383" d="M154 0v1456h292v-650h762l-373 650h1282l-375 -652q244 -8 370 -117t126 -343v-344h-292v344q0 131 -58 182t-186 51h-84v-577h-292v577h-110q-129 0 -186.5 -51t-57.5 -182v-344h-292v344q0 139 44 234h-278v-578h-292zM1274 1228l202 -389l202 389h-404z" />
<glyph unicode="&#x46d;" horiz-adv-x="2062" d="M133 0v1082h292v-469h579l-272 469h1065l-276 -474q184 -21 280 -124t96 -305v-179h-291v179q0 123 -44.5 171t-143.5 48h-11v-398h-292v398h-20q-100 0 -144 -48t-44 -171v-179h-291v179q0 136 43 227h-234v-406h-292zM1138 894l123 -259h6l123 259h-252z" />
<glyph unicode="&#x46e;" horiz-adv-x="1052" d="M5 -80q0 144 94.5 217.5t262.5 73.5h64q106 0 167.5 53.5t61.5 139.5q0 110 -70 168t-204 58h-143v232h150q113 0 167.5 51t54.5 138q0 81 -57.5 127.5t-171.5 46.5h-260v231h260q242 0 381.5 -96t139.5 -285q0 -118 -60.5 -201t-170.5 -126q134 -43 205 -129.5 t71 -210.5q0 -202 -137.5 -315.5t-367.5 -113.5h-58q-59 0 -86 -25.5t-27 -70.5q0 -60 42 -97t102 -63l-82 -171q-159 36 -243 132t-85 236zM181 1899v16h264l116 -127l117 127h264v-17l-281 -255h-199z" />
<glyph unicode="&#x46f;" horiz-adv-x="1033" d="M28 -80q0 131 86.5 197.5t240.5 66.5h56q101 0 160 35.5t59 93.5q0 66 -60 101t-173 35h-159v177h166q92 0 136.5 36t44.5 98q0 53 -51.5 85t-152.5 32h-260v205h260q230 0 362.5 -75.5t132.5 -223.5q0 -84 -47 -145.5t-133 -96.5q109 -33 167 -93t58 -144 q0 -152 -126.5 -238.5t-337.5 -86.5h-49q-67 0 -98 -25.5t-31 -70.5q0 -60 37.5 -97t91.5 -63l-82 -157q-131 42 -214 135.5t-84 218.5zM109 1555v16h264l116 -127l117 127h264v-17l-281 -255h-199z" />
<glyph unicode="&#x470;" horiz-adv-x="1483" d="M56 939v517h291v-517q0 -158 64 -249.5t180 -109.5l6 2v874h291v-875l6 -1q115 15 175 106t60 253v517h293v-517q0 -260 -144 -415t-390 -181v-343h-291v342q-251 21 -396 176.5t-145 420.5z" />
<glyph unicode="&#x471;" horiz-adv-x="1526" d="M68 590v492h292v-495q0 -161 64.5 -248.5t176.5 -109.5l6 1v852h292v-854l6 -2q137 27 200.5 124.5t63.5 241.5q-3 118 -31.5 239t-77.5 251h271q57 -99 93 -222t36 -268q0 -241 -134 -407t-427 -198v-465h-292v467q-257 31 -398 179.5t-141 421.5z" />
<glyph unicode="&#x472;" horiz-adv-x="1410" d="M97 597v262q0 267 167.5 442.5t436.5 175.5q271 0 441 -175.5t170 -442.5v-262q0 -268 -169.5 -443t-440.5 -175q-269 0 -437 175t-168 443zM388 597q0 -173 83 -282t231 -109q150 0 234 109t84 282v43h-632v-43zM388 820h632v41q0 170 -85 279t-234 109t-231 -108.5 t-82 -279.5v-41z" />
<glyph unicode="&#x473;" d="M65 530v21q0 242 135 396.5t374 154.5q240 0 376 -154t136 -397v-21q0 -244 -135.5 -397.5t-374.5 -153.5q-240 0 -375.5 153.5t-135.5 397.5zM365 444q8 -110 60 -175.5t151 -65.5q96 0 147.5 65.5t60.5 175.5l-2 5h-415zM365 634l2 -5h416l2 5q-9 108 -61.5 175.5 t-149.5 67.5t-149 -67.5t-60 -175.5z" />
<glyph unicode="&#x474;" horiz-adv-x="1315" d="M13 1456h308l308 -1061l18 -81h6l17 78l211 743q53 172 138 256t226 84l40 -1l-2 -236h-28q-43 0 -73.5 -32t-46.5 -88l-335 -1118h-300z" />
<glyph unicode="&#x475;" horiz-adv-x="1046" d="M16 1082h305l161 -679l17 -88h6l16 88l92 374q48 162 132 243.5t213 81.5q32 0 57 -4t46 -15l-24 -221q-4 1 -21 2.5t-30 1.5q-38 0 -68.5 -29.5t-42.5 -72.5l-232 -764h-279z" />
<glyph unicode="&#x476;" horiz-adv-x="1315" d="M13 1456h308l308 -1061l18 -81h6l17 78l211 743q53 172 138 256t226 84l40 -1l-2 -236h-28q-43 0 -73.5 -32t-46.5 -88l-335 -1118h-300zM52 1850l2 6h278l240 -261l-2 -5h-233zM443 1851l2 5h275l199 -266h-236z" />
<glyph unicode="&#x477;" horiz-adv-x="1046" d="M-47 1594l2 6h278l240 -261l-2 -5h-233zM16 1082h305l161 -679l17 -88h6l16 88l92 374q48 162 132 243.5t213 81.5q32 0 57 -4t46 -15l-24 -221q-4 1 -21 2.5t-30 1.5q-38 0 -68.5 -29.5t-42.5 -72.5l-232 -764h-279zM344 1595l2 5h275l199 -266h-236z" />
<glyph unicode="&#x478;" horiz-adv-x="2445" d="M92 597v262q0 267 167.5 442.5t436.5 175.5q271 0 441 -175.5t170 -442.5v-262q0 -268 -169.5 -443t-440.5 -175q-269 0 -437 175t-168 443zM383 597q0 -173 83 -282t231 -109q150 0 234 109t84 282v264q0 170 -85 279t-234 109t-231 -108.5t-82 -279.5v-264zM1404 1082 h314l183 -628l12 -60h6l207 688h314l-439 -1244q-46 -116 -125 -195.5t-237 -79.5q-37 0 -68.5 6t-76.5 17l34 213q13 -2 28 -4t27 -2q72 0 111 35.5t60 88.5l34 84z" />
<glyph unicode="&#x479;" horiz-adv-x="2202" d="M67 530v21q0 242 135 396.5t374 154.5q240 0 376 -154t136 -397v-21q0 -244 -135.5 -397.5t-374.5 -153.5q-240 0 -375.5 153.5t-135.5 397.5zM358 530q0 -148 52 -237.5t168 -89.5q113 0 165.5 90t52.5 237v21q0 144 -53 235t-167 91q-113 0 -165.5 -91.5t-52.5 -234.5 v-21zM1161 1082h314l183 -628l12 -60h6l207 688h314l-439 -1244q-46 -116 -125 -195.5t-237 -79.5q-37 0 -68.5 6t-76.5 17l34 213q13 -2 28 -4t27 -2q72 0 111 35.5t60 88.5l34 84z" />
<glyph unicode="&#x47a;" horiz-adv-x="1410" d="M92 597v262q0 267 167 442q139 146 348 170v106h195v-107q199 -29 335 -169q170 -175 170 -442v-262q0 -268 -170 -443q-134 -139 -333 -167v-123h-195v120q-210 24 -349 170q-168 175 -168 443zM383 597q0 -173 83 -282q56 -74 143 -98v111h195v-106q76 26 127 93 q84 109 84 282v264q0 170 -85 279q-52 66 -128 92v-109h-195v114q-87 -23 -142 -97q-82 -108 -82 -279v-264z" />
<glyph unicode="&#x47b;" d="M67 530v21q0 242 135 396q107 123 281 149v108h196v-110q167 -27 273 -146q136 -154 136 -397v-21q0 -244 -136 -398q-107 -121 -279 -146v-109h-195v110q-170 25 -276 145q-135 154 -135 398zM358 530q0 -148 52 -238q26 -45 68 -67v106h195v-107q43 22 70 69 q53 90 53 237v21q0 144 -53 235q-25 43 -64 66v-89h-196v94q-45 -23 -73 -72q-52 -91 -52 -234v-21z" />
<glyph unicode="&#x47c;" horiz-adv-x="1928" d="M123 463v508q0 231 134 357t347 122l6 -2v-217q-92 0 -143.5 -65t-51.5 -195v-508q0 -131 51.5 -195.5t143.5 -64.5q96 0 149.5 61t53.5 185v367h277v-367q0 -124 53 -185t150 -61q91 0 143 64.5t52 195.5v508q0 130 -52 195t-143 65v217l6 2q213 4 347 -122t134 -357 v-508q0 -232 -134.5 -358t-352.5 -126q-108 0 -196 37.5t-146 111.5q-59 -74 -147 -111.5t-194 -37.5q-218 0 -352.5 126t-134.5 358zM660 1587v37q0 109 60 163t172 54q70 0 224.5 -60t265.5 -60h22v-134h-23q-129 0 -287 60t-198 60q-49 0 -76 -25.5t-27 -76.5v-18h-133z M823 1347l59 108l-1 147h182v-129l-158 -181z" />
<glyph unicode="&#x47d;" horiz-adv-x="1657" d="M108 436v205q0 218 127 336.5t329 115.5l6 -3v-217q-80 0 -125 -58t-45 -174v-205q0 -117 37 -175t103 -58q69 0 108.5 57.5t39.5 174.5v169h277v-169q0 -117 39 -174.5t109 -57.5q65 0 102.5 58t37.5 175v205q0 116 -45.5 174t-124.5 58v217l6 3q201 3 328.5 -115.5 t127.5 -336.5v-205q0 -219 -120 -338t-312 -119q-91 0 -164.5 36t-122.5 107q-50 -71 -123 -107t-163 -36q-194 0 -313 119t-119 338zM544 1240v37q0 109 60.5 163t172.5 54q70 0 224 -60t265 -60h22v-134h-23q-129 0 -286.5 60t-198.5 60q-49 0 -76 -25.5t-27 -76.5v-18 h-133zM708 1013l58 109l-1 133h182v-115l-158 -182z" />
<glyph unicode="&#x47e;" horiz-adv-x="1931" d="M123 449v1007h292v-1007q0 -124 51.5 -185t143.5 -61q96 0 149.5 61t53.5 185v1007h294v-1007q0 -124 53 -185t147 -61q93 0 145.5 61t52.5 185v1007h292v-1007q0 -225 -136 -347.5t-354 -122.5q-111 0 -201 40t-147 119q-58 -78 -148.5 -118.5t-200.5 -40.5 q-218 0 -352.5 122.5t-134.5 347.5zM519 1687v112h885l2 -112h-362v-127h-181v127h-344z" />
<glyph unicode="&#x47f;" horiz-adv-x="1684" d="M99 435v647h293v-647q0 -118 37.5 -175t109.5 -57q82 0 126 57t44 175v647h293v-647q0 -119 40 -175.5t120 -56.5q73 0 111.5 57t38.5 175v647h292v-647q0 -220 -121 -338t-321 -118q-99 0 -177.5 35t-130.5 105q-55 -70 -135.5 -105t-179.5 -35q-199 0 -319.5 118 t-120.5 338zM442 1345v112h824l6 -112h-336v-127h-181v127h-313z" />
<glyph unicode="&#x480;" horiz-adv-x="1277" d="M92 583v289q0 267 153.5 436t408.5 169q258 0 399.5 -129.5t137.5 -366.5l-2 -6h-283q0 141 -60.5 209t-191.5 68q-130 0 -200 -105t-70 -273v-291q0 -169 70 -274.5t200 -105.5h188v-569h-291v353q-212 33 -335.5 195t-123.5 401z" />
<glyph unicode="&#x481;" horiz-adv-x="1095" d="M86 525v30q0 238 131 392.5t368 154.5q199 0 320.5 -114t117.5 -300l-2 -6h-266q0 83 -45.5 139t-124.5 56q-111 0 -159.5 -91t-48.5 -231v-30q0 -143 48 -232.5t162 -89.5h189v-570h-292v355q-191 32 -294.5 179t-103.5 358z" />
<glyph unicode="&#x482;" horiz-adv-x="1275" d="M107 569l71 128l293 -171l202 360l-290 171l73 130l291 -171l185 326h172l-228 -405l293 -171l-76 -127l-288 170l-204 -360l289 -172l-72 -128l-291 170l-181 -319h-175l225 398z" />
<glyph unicode="&#x483;" horiz-adv-x="912" d="M92 1187l1 238h546l-1 108l177 -1v-220h-546v-126z" />
<glyph unicode="&#x484;" horiz-adv-x="952" d="M102 1303v134h21q113 0 271.5 60t231.5 60q113 0 175.5 -54t62.5 -163v-37h-136v18q0 51 -29 76.5t-77 25.5q-43 0 -204.5 -60t-292.5 -60h-23z" />
<glyph unicode="&#x485;" horiz-adv-x="476" d="M125 1500v141h190l-1 -159l58 -109l-81 -68z" />
<glyph unicode="&#x486;" horiz-adv-x="491" d="M107 1373l58 109l-1 159h190v-141l-166 -195z" />
<glyph unicode="&#x488;" horiz-adv-x="2068" d="M60 493q-5 78 51.5 130t152.5 52t152.5 -51.5t52.5 -130.5l-2 -6h-104q0 44 -24 72.5t-75 28.5q-50 0 -73.5 -29t-23.5 -72h-105zM226 -26q-5 78 51.5 130t152.5 52t153 -51.5t53 -130.5l-2 -6h-105q0 44 -24 72.5t-75 28.5q-50 0 -73 -29t-23 -72h-106zM236 996 q-5 79 51.5 130.5t153.5 51.5q96 0 152.5 -51.5t52.5 -130.5l-2 -6h-104q0 43 -24.5 72t-74.5 29t-73.5 -29t-23.5 -72h-106zM809 1273q-5 79 51 130.5t153 51.5q96 0 152.5 -51.5t52.5 -130.5l-2 -6h-104q0 43 -24.5 72t-74.5 29t-73.5 -29t-23.5 -72h-105zM814 -310 q-5 80 51 131t153 51q96 0 152.5 -51t52.5 -131l-2 -6h-104q0 44 -24.5 72.5t-74.5 28.5t-73.5 -28.5t-23.5 -72.5h-105zM1390 -26q-5 78 51.5 130t152.5 52t152.5 -51.5t52.5 -130.5l-2 -6h-104q0 44 -24 72.5t-75 28.5q-50 0 -73.5 -29t-23.5 -72h-105zM1400 996 q-5 78 51.5 130t152.5 52t153 -51.5t53 -130.5l-2 -6h-105q0 44 -24 72.5t-75 28.5q-50 0 -73 -29t-23 -72h-106zM1587 493q-5 78 51.5 130t152.5 52t152.5 -51.5t52.5 -130.5l-2 -6h-104q0 44 -24 72.5t-75 28.5q-50 0 -73.5 -29t-23.5 -72h-105z" />
<glyph unicode="&#x489;" horiz-adv-x="2000" d="M73 545v98l346 -71v-139l-13 -12zM268 -80l294 200l97 -99l-2 -17l-320 -153zM354 1188l65 69l198 -299l-98 -98l-17 2zM893 -413l70 353h137l11 -14l-122 -339h-96zM893 1140l122 338h96l-70 -352h-136zM1343 1002l2 16l321 153l68 -68q-37 -23 -294 -200zM1384 62 l97 99l17 -2l149 -325l-66 -71zM1583 492v139l13 12l333 -124v-98z" />
<glyph unicode="&#x48a;" horiz-adv-x="1436" d="M126 0v1456h291v-970l6 -1l587 971h293v-1456h-293v971l-6 1l-587 -972h-291zM375 1890l2 6h213q0 -53 30.5 -87t95.5 -34q63 0 93.5 34t30.5 87h214l2 -6q5 -127 -88.5 -207.5t-251.5 -80.5q-159 0 -253 80.5t-88 207.5zM1215 -341l70 324v228h284v-237l-159 -315h-195z " />
<glyph unicode="&#x48b;" d="M107 0v1082h292v-658l6 -1l353 659h291v-1082h-291v660l-6 1l-353 -661h-292zM238 1547l2 6h213q0 -53 30.5 -87t95.5 -34q63 0 93.5 34t30.5 87h214l2 -6q5 -127 -88.5 -207.5t-251.5 -80.5q-159 0 -253 80.5t-88 207.5zM961 -341l70 324v228h284v-237l-159 -315h-195z " />
<glyph unicode="&#x48c;" horiz-adv-x="1283" d="M-26 1090v181h158v185h292v-185h221v-181h-221v-146h250q251 0 399 -131t148 -339q0 -210 -148.5 -342t-398.5 -132h-542v1090h-158zM424 224h250q123 0 189.5 73t66.5 179q0 102 -66.5 172.5t-189.5 70.5h-250v-495z" />
<glyph unicode="&#x48d;" horiz-adv-x="1143" d="M-26 1275v181h155v163h293v-163h255v-181h-255v-489h203q218 0 343 -108t125 -283q0 -177 -125.5 -286t-342.5 -109h-496v1275h-155zM422 223h203q89 0 133 47.5t44 122.5q0 72 -44 120.5t-133 48.5h-203v-339z" />
<glyph unicode="&#x48e;" horiz-adv-x="1288" d="M136 0v1456h580q251 0 395 -128t144 -337t-144 -336q-3 -2 -5 -5l119 -130l-101 -93l-137 150q-115 -49 -271 -49h-288v-528h-292zM428 753h288q55 0 98 14l-128 141l101 93l138 -152q39 59 39 140q0 105 -62.5 173.5t-185.5 68.5h-288v-478z" />
<glyph unicode="&#x48f;" horiz-adv-x="1154" d="M112 -416v1498h268l14 -126q48 70 115 108t156 38q201 0 312 -157t111 -413v-21q0 -240 -111 -386q-3 -4 -6 -7l96 -112l-104 -92l-96 113q-86 -48 -200 -48q-85 0 -151 31.5t-113 92.5v-519h-291zM403 297q27 -46 73.5 -70t114.5 -24q61 0 103 27l-116 137l104 91 l92 -109q22 68 22 162v21q0 153 -51 248t-156 95q-66 0 -112.5 -27t-73.5 -77v-474z" />
<glyph unicode="&#x490;" horiz-adv-x="1138" d="M119 0v1456h684v368h292v-593h-684v-1231h-292z" />
<glyph unicode="&#x491;" horiz-adv-x="946" d="M107 0v1082h489v315h291v-540h-41v-1h-447v-856h-292z" />
<glyph unicode="&#x492;" horiz-adv-x="1141" d="M-12 664v181h148v611h949v-225h-657v-386h231v-181h-231v-664h-292v664h-148z" />
<glyph unicode="&#x493;" horiz-adv-x="855" d="M-46 455v181h153v446h739v-226h-447v-220h226v-181h-226v-455h-292v455h-153z" />
<glyph unicode="&#x494;" horiz-adv-x="1149" d="M136 0v1456h949v-225h-657v-395h174q278 0 440.5 -150.5t162.5 -435.5q0 -250 -131 -416.5t-408 -162.5l-6 2v206q150 0 201.5 103t52.5 255q0 184 -80 277t-232 93h-174v-607h-292z" />
<glyph unicode="&#x495;" horiz-adv-x="1085" d="M107 0v1082h738v-226h-447v-192h51q256 0 411 -125.5t155 -361.5q2 -134 -94 -269t-277 -194l-123 189q99 45 150.5 111t51.5 163q0 126 -72.5 192t-201.5 66h-51v-435h-291z" />
<glyph unicode="&#x496;" horiz-adv-x="2032" d="M18 0l458 785l-434 671h361l328 -595h151v595h291v-595h147l321 595h360l-427 -669l451 -787h-363l-319 608h-170v-608h-291v608h-174l-326 -608h-364zM1848 234h292v-591h-292v591z" />
<glyph unicode="&#x497;" horiz-adv-x="1754" d="M25 0l350 587l-332 495h368l217 -408h106v408h291v-408h107l218 408h368l-332 -495l349 -587h-374l-209 408h-127v-408h-291v408h-126l-209 -408h-374zM1514 234h292v-591h-292v591z" />
<glyph unicode="&#x498;" horiz-adv-x="1260" d="M93 398l1 6h284q0 -85 76.5 -143t196.5 -58q142 0 224.5 58.5t82.5 149.5q0 115 -73.5 168.5t-217.5 53.5h-197v219h197q137 0 203 54t66 151q0 84 -73 139.5t-212 55.5q-109 0 -181 -52.5t-72 -134.5h-283l-1 6q-6 181 151 293.5t386 112.5q266 0 421 -108t155 -308 q0 -100 -65 -183t-179 -130q129 -43 198 -129t69 -211q0 -201 -166 -315t-433 -114q-230 0 -397 107t-161 312zM481 118h292v-591h-292v591z" />
<glyph unicode="&#x499;" horiz-adv-x="1053" d="M76 314l1 6h283q0 -56 46 -93t130 -37q81 0 121 39t40 96q0 70 -40 102.5t-123 32.5h-156v186h156q74 0 109 31t35 88q0 52 -33.5 88t-109.5 36q-71 0 -114.5 -32t-43.5 -86h-283l-2 6q-6 145 118 234.5t310 89.5q208 0 328.5 -82t120.5 -233q0 -73 -44 -133.5 t-122 -95.5q90 -32 137.5 -95.5t47.5 -155.5q0 -152 -129.5 -239t-338.5 -87q-185 0 -317.5 86t-126.5 248zM388 119h292v-591h-292v591z" />
<glyph unicode="&#x49a;" horiz-adv-x="1323" d="M136 0v1456h292v-595h127l386 595h357l-490 -678l529 -778h-356l-391 608h-162v-608h-292zM1090 234h292v-591h-292v591z" />
<glyph unicode="&#x49b;" horiz-adv-x="1148" d="M129 0v1082h292v-412h102l233 412h369l-353 -510l385 -572h-389l-235 405h-112v-405h-292zM943 234h292v-591h-292v591z" />
<glyph unicode="&#x49c;" horiz-adv-x="1351" d="M132 0v1456h292v-599h83v256h167v-256h40l260 599h361l-381 -663l420 -793h-372l-274 604h-54v-229h-167v229h-83v-604h-292z" />
<glyph unicode="&#x49d;" horiz-adv-x="1184" d="M129 0v1082h292v-412h59v191h151v-191h25l154 412h369l-293 -510l309 -572h-373l-165 405h-26v-172h-151v172h-59v-405h-292z" />
<glyph unicode="&#x49e;" horiz-adv-x="1343" d="M-62 1140v181h218v135h292v-135h161v-181h-161v-279h127l386 595h357l-490 -678l529 -778h-356l-391 608h-162v-608h-292v1140h-218z" />
<glyph unicode="&#x49f;" horiz-adv-x="1117" d="M-51 1208v181h183v171h292v-171h196v-181h-196v-533h72l251 407h338l-346 -490l399 -592h-335l-299 453h-80v-453h-292v1208h-183z" />
<glyph unicode="&#x4a0;" horiz-adv-x="1692" d="M37 1230v226h771v-595h127l386 595h357l-490 -678l529 -778h-356l-391 608h-162v-608h-292v1230h-479z" />
<glyph unicode="&#x4a1;" horiz-adv-x="1466" d="M58 856v226h686v-412h103l233 412h368l-353 -510l385 -572h-388l-236 405h-112v-405h-291v856h-395z" />
<glyph unicode="&#x4a2;" horiz-adv-x="1450" d="M136 0v1456h292v-626h594v626h291v-1456h-291v605h-594v-605h-292zM1204 234h292v-591h-292v591z" />
<glyph unicode="&#x4a3;" d="M107 0v1082h292v-438h356v438h292v-1082h-292v420h-356v-420h-292zM938 234h292v-591h-292v591z" />
<glyph unicode="&#x4a4;" horiz-adv-x="2019" d="M136 0v1456h292v-626h594v626h917v-225h-626v-1231h-291v605h-594v-605h-292z" />
<glyph unicode="&#x4a5;" horiz-adv-x="1446" d="M107 0v1082h292v-438h356v438h631v-225h-339v-857h-292v420h-356v-420h-292z" />
<glyph unicode="&#x4a6;" horiz-adv-x="2141" d="M136 0v1456h1178v-622h152q278 0 440.5 -150.5t162.5 -435.5q0 -249 -131 -416t-408 -163l-6 2v206q150 0 201.5 103t52.5 255q0 184 -80 277t-232 93h-152v-605h-292v1231h-594v-1231h-292z" />
<glyph unicode="&#x4a7;" horiz-adv-x="1773" d="M107 0v1082h942v-412h90q266 0 426 -125t160 -361q2 -134 -94 -269t-277 -195l-123 189q100 45 151 111.5t51 163.5q0 126 -77.5 192t-216.5 66h-90v-442h-292v856h-358v-856h-292z" />
<glyph unicode="&#x4a8;" horiz-adv-x="1637" d="M97 664v200q0 263 142.5 437t367.5 169l6 -2v-226q-97 0 -153 -105.5t-56 -270.5v-202q0 -200 103 -325.5t281 -125.5q20 0 38 1t35 4q-104 97 -159.5 226.5t-55.5 281.5v201q0 235 118.5 392t308.5 157q203 0 330 -165t127 -424v-183q0 -141 -46 -265t-130 -220 q42 -10 89 -14t98 -4v-219q-114 0 -217 17.5t-193 52.5q-76 -36 -162.5 -54.5t-180.5 -18.5q-307 0 -499 195.5t-192 489.5zM922 724q0 -120 44.5 -219t129.5 -163h6q64 61 100 155.5t36 206.5v212q0 171 -42 248.5t-123 77.5q-73 0 -112 -78.5t-39 -234.5v-205z" />
<glyph unicode="&#x4a9;" horiz-adv-x="1324" d="M84 534v93q0 205 118.5 339t305.5 130l6 -2v-225q-57 -7 -89.5 -72t-32.5 -168v-95q0 -141 69 -229t181 -79l5 3q-49 54 -74 134t-25 173v149q0 180 94.5 298.5t248.5 118.5q159 0 258 -131t99 -329v-143q0 -100 -35 -188t-100 -156q35 -7 74 -10.5t81 -3.5v-165 q-100 0 -186.5 13t-159.5 39q-60 -24 -128 -36.5t-140 -12.5q-253 0 -411.5 157.5t-158.5 397.5zM763 523q0 -71 23.5 -131t68.5 -103h6q45 35 70.5 94t25.5 130v145q0 90 -26.5 149.5t-67.5 55.5h-6q-42 4 -68 -50t-26 -137v-153z" />
<glyph unicode="&#x4aa;" horiz-adv-x="1309" d="M93 583v289q0 265 160 435t416 170q270 0 422 -138.5t148 -377.5l-2 -6h-284q0 144 -69 220.5t-215 76.5q-131 0 -208 -106.5t-77 -271.5v-291q0 -167 81 -273.5t219 -106.5q137 0 202.5 73.5t65.5 218.5h283l2 -6q4 -235 -143.5 -372.5t-409.5 -137.5q-263 0 -427 169 t-164 435zM516 125h292v-591h-292v591z" />
<glyph unicode="&#x4ab;" horiz-adv-x="1060" d="M62 525v30q0 239 130.5 393t372.5 154q200 0 322.5 -114t118.5 -300l-2 -6h-266q0 84 -46 139.5t-127 55.5q-116 0 -163.5 -90t-47.5 -232v-30q0 -145 47.5 -233.5t164.5 -88.5q78 0 125 45.5t47 121.5h265l3 -6q4 -164 -123.5 -274.5t-316.5 -110.5q-242 0 -373 153 t-131 393zM407 125h292v-591h-292v591z" />
<glyph unicode="&#x4ac;" horiz-adv-x="1169" d="M28 1231v225h1114v-225h-412v-1231h-292v1231h-410zM621 234h292v-591h-292v591z" />
<glyph unicode="&#x4ad;" horiz-adv-x="1070" d="M48 859v223h980v-223h-346v-859h-293v859h-341zM573 234h292v-591h-292v591z" />
<glyph unicode="&#x4ae;" horiz-adv-x="1292" d="M5 1456h320l318 -671h6l318 671h320l-500 -944v-512h-291v527z" />
<glyph unicode="&#x4af;" horiz-adv-x="1046" d="M16 1082h305l182 -679l19 -100h6l20 100l178 679h305l-362 -1065v-434h-292v437z" />
<glyph unicode="&#x4b0;" horiz-adv-x="1292" d="M5 1456h320l317 -671h6l319 671h320l-401 -757h104v-181h-200l-3 -6v-512h-291v518h-177v181h86z" />
<glyph unicode="&#x4b1;" horiz-adv-x="1046" d="M16 1082h305l182 -679l19 -100h6l20 100l178 679h305l-304 -892h140v-181h-198v-426h-292v426h-181v181h123z" />
<glyph unicode="&#x4b2;" horiz-adv-x="1303" d="M31 0l443 734l-432 722h338l269 -516l273 516h340l-432 -722l457 -734h-353l-281 525l-281 -525h-341zM1023 234h292v-591h-292v591z" />
<glyph unicode="&#x4b3;" horiz-adv-x="1046" d="M19 0l337 547l-327 535h328l162 -344h6l166 344h330l-326 -535l337 -547h-329l-177 359l-177 -359h-330zM782 234h292v-591h-292v591z" />
<glyph unicode="&#x4b4;" horiz-adv-x="1841" d="M43 1230v225h322v1h292v-1h346v-225h-346v-1005h594v1231h292v-1218h238v-591h-292v353h-1124v1230h-322z" />
<glyph unicode="&#x4b5;" horiz-adv-x="1420" d="M46 857v225h707v-225h-197v-633h358v858h292v-858h156v-582h-291v358h-807v857h-218z" />
<glyph unicode="&#x4b6;" horiz-adv-x="1423" d="M139 1003v453h292v-453q0 -142 63.5 -196t205.5 -54q62 0 145.5 8.5t149.5 24.5v670h293v-1456h-293v561q-66 -16 -148 -24.5t-147 -8.5q-268 0 -414.5 116t-146.5 359zM1179 234h292v-591h-292v591z" />
<glyph unicode="&#x4b7;" horiz-adv-x="1147" d="M103 742v340h292v-340q0 -107 47 -148t159 -41q37 0 73.5 4t74.5 12v513h292v-1082h-292v343q-37 -8 -75.5 -11.5t-72.5 -3.5q-239 0 -368.5 102t-129.5 312zM932 234h292v-591h-292v591z" />
<glyph unicode="&#x4b8;" horiz-adv-x="1394" d="M139 1003v453h292v-453q0 -142 63 -196q55 -47 170 -53v293h167v-287q7 1 14 1q84 9 150 25v670h293v-1456h-293v561q-66 -16 -148 -25l-16 -2v-243h-167v237q-242 8 -379 116q-146 116 -146 359z" />
<glyph unicode="&#x4b9;" horiz-adv-x="1148" d="M103 742v340h292v-340q0 -107 47 -148q19 -17 50 -27v258h167v-270q8 1 15 2q37 4 75 12v513h292v-1082h-292v343q-37 -8 -76 -12q-7 0 -14 -1v-146h-167v150q-162 18 -260 96q-129 102 -129 312z" />
<glyph unicode="&#x4ba;" horiz-adv-x="1433" d="M78 0v1456h293v-561q66 14 148 23.5t147 9.5q267 0 414 -116.5t147 -358.5v-453h-292v453q0 141 -64 195.5t-205 54.5q-62 0 -145.5 -9.5t-149.5 -23.5v-670h-293z" />
<glyph unicode="&#x4bb;" horiz-adv-x="1148" d="M95 2v1082h292v-343q37 8 75.5 11.5t72.5 3.5q239 0 368.5 -102t129.5 -312v-340h-292v340q0 107 -47 148t-159 41q-37 0 -73.5 -4t-74.5 -12v-513h-292z" />
<glyph unicode="&#x4bc;" horiz-adv-x="1680" d="M-18 1082h196q0 -86 33 -142t99 -77q33 273 209 443t421 169q292 0 448 -182t156 -500v-150h-940l-2 -6q9 -190 113 -304.5t315 -114.5q116 0 209 19t169 47l49 -225q-52 -28 -163.5 -55t-263.5 -27q-339 0 -526.5 186.5t-199.5 499.5q-155 24 -238.5 134t-83.5 285z M606 868l2 -5h645v31q0 153 -75 246t-238 93q-141 0 -228 -101.5t-106 -263.5z" />
<glyph unicode="&#x4bd;" horiz-adv-x="1225" d="M-68 865h183q0 -63 20.5 -110t61.5 -74q34 191 160 306t317 115q219 0 340 -132t121 -357v-159h-646l-2 -6q8 -107 71.5 -176t172.5 -69q97 0 161 19.5t140 61.5l79 -180q-66 -54 -173 -89.5t-238 -35.5q-228 0 -367 141.5t-147 362.5q-123 36 -188.5 135t-65.5 247z M488 652l3 -5h358v26q0 93 -43.5 148.5t-131.5 55.5q-81 0 -128 -62t-58 -163z" />
<glyph unicode="&#x4be;" horiz-adv-x="1553" d="M-18 1082h196q0 -86 33 -142t99 -77q33 273 209 443t421 169q292 0 448 -182t156 -500v-150h-940l-2 -6q9 -190 113 -304.5t315 -114.5q116 0 209 19t169 47l49 -225q-52 -28 -163.5 -55t-263.5 -27q-339 0 -526.5 186.5t-199.5 499.5q-155 24 -238.5 134t-83.5 285z M606 868l2 -5h645v31q0 153 -75 246t-238 93q-141 0 -228 -101.5t-106 -263.5zM797 127h292v-591h-292v591z" />
<glyph unicode="&#x4bf;" horiz-adv-x="1225" d="M-68 865h183q0 -63 20.5 -110t61.5 -74q34 191 160 306t317 115q219 0 340 -132t121 -357v-159h-646l-2 -6q8 -107 71.5 -176t172.5 -69q97 0 161 19.5t140 61.5l79 -180q-66 -54 -173 -89.5t-238 -35.5q-228 0 -367 141.5t-147 362.5q-123 36 -188.5 135t-65.5 247z M488 652l3 -5h358v26q0 93 -43.5 148.5t-131.5 55.5q-81 0 -128 -62t-58 -163zM573 135h292v-591h-292v591z" />
<glyph unicode="&#x4c0;" horiz-adv-x="601" d="M154 0v1456h292v-1456h-292z" />
<glyph unicode="&#x4c1;" horiz-adv-x="2032" d="M18 0l458 785l-434 671h361l328 -595h151v595h291v-595h147l321 595h360l-427 -669l451 -787h-363l-319 608h-170v-608h-291v608h-174l-326 -608h-364zM685 1890l2 6h213q0 -53 30.5 -87t95.5 -34q63 0 93.5 34t30.5 87h214l2 -6q5 -127 -88.5 -207.5t-251.5 -80.5 q-159 0 -253 80.5t-88 207.5z" />
<glyph unicode="&#x4c2;" horiz-adv-x="1754" d="M25 0l350 587l-332 495h368l217 -408h106v408h291v-408h107l218 408h368l-332 -495l349 -587h-374l-209 408h-127v-408h-291v408h-126l-209 -408h-374zM554 1547l2 6h213q0 -53 30.5 -87t95.5 -34q63 0 93.5 34t30.5 87h214l2 -6q5 -127 -88.5 -207.5t-251.5 -80.5 q-159 0 -253 80.5t-88 207.5z" />
<glyph unicode="&#x4c3;" horiz-adv-x="1328" d="M132 0v1456h292v-593h102l371 593h361l-447 -631q223 -32 350 -179.5t127 -398.5q0 -248 -131 -415t-408 -163l-6 2l-1 205q150 0 202 103t53 255q0 184 -80 277.5t-232 93.5h-261v-605h-292z" />
<glyph unicode="&#x4c4;" horiz-adv-x="1170" d="M129 0v1082h292v-412h87l248 412h369l-344 -482q158 -47 246.5 -158.5t88.5 -283.5q2 -132 -93.5 -264t-277.5 -191l-123 189q100 44 151 108t51 158q0 125 -76.5 186t-217.5 61h-109v-405h-292z" />
<glyph unicode="&#x4c5;" horiz-adv-x="1447" d="M42 0v224h40q137 0 184 122t47 447v663h998v-1456h-292v1231h-414v-438q0 -422 -127.5 -607.5t-392.5 -185.5h-43zM1223 -341l70 324v228h284v-237l-159 -315h-195z" />
<glyph unicode="&#x4c6;" horiz-adv-x="1149" d="M15 230l31 1q100 0 130 82t30 308v461h843v-1082h-291v856h-260v-235q0 -320 -98 -470.5t-335 -150.5h-47zM961 -341l70 324v228h284v-237l-159 -315h-195z" />
<glyph unicode="&#x4c7;" horiz-adv-x="1450" d="M136 0v1456h292v-626h594v626h291v-1496q0 -190 -101 -293.5t-281 -103.5q-40 0 -74 4t-70 13l14 221q23 -6 48 -9.5t52 -3.5q57 0 89 45t32 127v645h-594v-605h-292z" />
<glyph unicode="&#x4c8;" d="M107 0v1082h292v-438h356v438h292v-1122q0 -190 -101 -293.5t-281 -103.5q-40 0 -74 4t-70 13l14 221q23 -6 47.5 -9.5t51.5 -3.5q57 0 89 45t32 127v460h-356v-420h-292z" />
<glyph unicode="&#x4c9;" horiz-adv-x="1450" d="M136 0v1456h292v-626h594v626h291v-1456h-291v605h-594v-605h-292zM1225 -341l70 324v228h284v-237l-159 -315h-195z" />
<glyph unicode="&#x4ca;" d="M107 0v1082h292v-438h356v438h292v-1082h-292v420h-356v-420h-292zM959 -341l70 324v228h284v-237l-159 -315h-195z" />
<glyph unicode="&#x4cb;" horiz-adv-x="1423" d="M139 1003v453h292v-453q0 -142 63.5 -196t205.5 -54q62 0 145.5 8.5t149.5 24.5v670h293v-1456h-293v561q-66 -16 -148 -24.5t-147 -8.5q-268 0 -414.5 116t-146.5 359zM804 234h292v-591h-292v591z" />
<glyph unicode="&#x4cc;" horiz-adv-x="1147" d="M103 742v340h292v-340q0 -107 47 -148t159 -41q37 0 73.5 4t74.5 12v513h292v-1082h-292v343q-37 -8 -75.5 -11.5t-72.5 -3.5q-239 0 -368.5 102t-129.5 312zM557 234h292v-591h-292v591z" />
<glyph unicode="&#x4cd;" horiz-adv-x="1787" d="M136 0v1456h381l371 -1073h6l374 1073h382v-1456h-292v434l28 643l-6 1l-390 -1078h-196l-388 1074l-6 -1l28 -639v-434h-292zM1562 -341l70 324v228h284v-237l-159 -315h-195z" />
<glyph unicode="&#x4ce;" horiz-adv-x="1557" d="M129 0v1082h362l275 -742h6l279 742h365v-1082h-291v646l-6 1l-251 -647h-196l-245 633l-6 -1v-632h-292zM1328 -341l70 324v228h284v-237l-159 -315h-195z" />
<glyph unicode="&#x4cf;" horiz-adv-x="601" d="M154 0v1456h292v-1456h-292z" />
<glyph unicode="&#x4d0;" horiz-adv-x="1311" d="M12 0l501 1456h299l499 -1456h-295l-99 314h-511l-99 -314h-295zM315 1890l2 6h213q0 -53 30.5 -87t95.5 -34q63 0 93.5 34t30.5 87h214l2 -6q5 -127 -88.5 -207.5t-251.5 -80.5q-159 0 -253 80.5t-88 207.5zM478 543h367l-180 572h-6z" />
<glyph unicode="&#x4d1;" horiz-adv-x="1100" d="M55 305q0 159 122.5 246.5t357.5 87.5h163v86q0 78 -41 121t-121 43q-71 0 -109.5 -34.5t-38.5 -95.5l-282 1l-1 6q-7 137 119 236.5t331 99.5q194 0 315 -98.5t121 -280.5v-447q0 -76 11.5 -143t36.5 -133h-292q-16 37 -27.5 78t-16.5 84q-45 -79 -118.5 -131 t-175.5 -52q-170 0 -262 87.5t-92 238.5zM204 1568l2 6h213q0 -53 30.5 -87t95.5 -34q63 0 93.5 34t30.5 87h214l2 -6q5 -127 -88.5 -207.5t-251.5 -80.5q-159 0 -253 80.5t-88 207.5zM346 315q0 -54 36 -87t98 -33q77 0 137 38t81 88v153h-163q-93 0 -141 -46.5t-48 -112.5 z" />
<glyph unicode="&#x4d2;" horiz-adv-x="1311" d="M12 0l501 1456h299l499 -1456h-295l-99 314h-511l-99 -314h-295zM272 1601v204h266v-204h-266zM478 543h367l-180 572h-6zM772 1601v204h266v-204h-266z" />
<glyph unicode="&#x4d3;" horiz-adv-x="1100" d="M55 305q0 159 122.5 246.5t357.5 87.5h163v86q0 78 -41 121t-121 43q-71 0 -109.5 -34.5t-38.5 -95.5l-282 1l-1 6q-7 137 119 236.5t331 99.5q194 0 315 -98.5t121 -280.5v-447q0 -76 11.5 -143t36.5 -133h-292q-16 37 -27.5 78t-16.5 84q-45 -79 -118.5 -131 t-175.5 -52q-170 0 -262 87.5t-92 238.5zM161 1279v204h266v-204h-266zM346 315q0 -54 36 -87t98 -33q77 0 137 38t81 88v153h-163q-93 0 -141 -46.5t-48 -112.5zM661 1279v204h266v-204h-266z" />
<glyph unicode="&#x4d4;" horiz-adv-x="1925" d="M3 0l784 1456h1016v-228h-596l16 -366h499v-227h-490l17 -408h616v-227h-898l-14 335h-440l-168 -335h-342zM633 575h310l-23 559l-6 1z" />
<glyph unicode="&#x4d5;" horiz-adv-x="1729" d="M46 317q0 159 127 245t370 86h181v59q0 79 -41 124.5t-115 45.5q-81 0 -127 -37.5t-46 -93.5l-283 18l-2 6q-6 144 121.5 238t339.5 94q102 0 186 -27.5t143 -79.5q61 52 142.5 79.5t180.5 27.5q212 0 333 -132t121 -358v-158h-650l-2 -6q4 -112 66 -178.5t186 -66.5 q92 0 154 20t140 61l77 -184q-62 -48 -169 -84.5t-233 -36.5q-129 0 -229.5 40.5t-167.5 116.5q-60 -68 -161.5 -112.5t-240.5 -44.5q-192 0 -296.5 90.5t-104.5 247.5zM338 313q0 -59 41.5 -93.5t123.5 -34.5q58 0 121 30.5t100 72.5v176h-179q-98 0 -152.5 -44t-54.5 -107 zM1027 649l2 -5h362v28q0 94 -42.5 149.5t-125.5 55.5q-95 0 -142 -61.5t-54 -166.5z" />
<glyph unicode="&#x4d6;" horiz-adv-x="1176" d="M136 0v1456h995v-225h-703v-366h603v-225h-603v-416h705v-224h-997zM264 1890l2 6h213q0 -53 30.5 -87t95.5 -34q63 0 93.5 34t30.5 87h214l2 -6q5 -127 -88.5 -207.5t-251.5 -80.5q-159 0 -253 80.5t-88 207.5z" />
<glyph unicode="&#x4d7;" horiz-adv-x="1084" d="M77 510v40q0 241 132.5 397t355.5 155q219 0 340 -132t121 -357v-159h-646l-2 -6q8 -107 71.5 -176t172.5 -69q97 0 161 19.5t140 61.5l79 -180q-66 -54 -173 -89.5t-238 -35.5q-234 0 -374 150t-140 381zM206 1569l2 6h213q0 -53 30.5 -87t95.5 -34q63 0 93.5 34 t30.5 87h214l2 -6q5 -127 -88.5 -207.5t-251.5 -80.5q-159 0 -253 80.5t-88 207.5zM379 652l3 -5h358v26q0 93 -43.5 148.5t-131.5 55.5q-81 0 -128 -62t-58 -163z" />
<glyph unicode="&#x4d8;" horiz-adv-x="1506" d="M86 660v150h980l2 6q-9 188 -113.5 303.5t-314.5 115.5q-117 0 -209.5 -19.5t-168.5 -46.5l-49 225q53 28 163.5 55.5t263.5 27.5q350 0 538.5 -199.5t188.5 -530.5v-42q0 -318 -183 -522.5t-454 -203.5q-312 0 -478 181.5t-166 499.5zM377 559q0 -154 84 -246.5 t269 -92.5q140 0 227 101t107 264l-2 5h-685v-31z" />
<glyph unicode="&#x4d9;" horiz-adv-x="1081" d="M95 469v159h646l2 6q-8 107 -71.5 176t-172.5 69q-97 0 -161 -19.5t-140 -61.5l-79 180q66 54 173 89.5t238 35.5q234 0 374 -150t140 -381v-40q0 -241 -132.5 -397t-355.5 -155q-219 0 -340 132t-121 357zM381 409q0 -93 43.5 -148.5t131.5 -55.5q81 0 128 62t58 163 l-3 5h-358v-26z" />
<glyph unicode="&#x4da;" horiz-adv-x="1506" d="M86 660v150h980l2 6q-9 188 -113.5 303.5t-314.5 115.5q-117 0 -209.5 -19.5t-168.5 -46.5l-49 225q53 28 163.5 55.5t263.5 27.5q350 0 538.5 -199.5t188.5 -530.5v-42q0 -318 -183 -522.5t-454 -203.5q-312 0 -478 181.5t-166 499.5zM297 1546v204h266v-204h-266z M377 559q0 -154 84 -246.5t269 -92.5q140 0 227 101t107 264l-2 5h-685v-31zM797 1546v204h266v-204h-266z" />
<glyph unicode="&#x4db;" horiz-adv-x="1081" d="M95 469v159h646l2 6q-8 107 -71.5 176t-172.5 69q-97 0 -161 -19.5t-140 -61.5l-79 180q66 54 173 89.5t238 35.5q234 0 374 -150t140 -381v-40q0 -241 -132.5 -397t-355.5 -155q-219 0 -340 132t-121 357zM181 1279v204h266v-204h-266zM381 409q0 -93 43.5 -148.5 t131.5 -55.5q81 0 128 62t58 163l-3 5h-358v-26zM681 1279v204h266v-204h-266z" />
<glyph unicode="&#x4dc;" horiz-adv-x="2032" d="M18 0l458 785l-434 671h361l328 -595h151v595h291v-595h147l321 595h360l-427 -669l451 -787h-363l-319 608h-170v-608h-291v608h-174l-326 -608h-364zM639 1601v204h266v-204h-266zM1139 1601v204h266v-204h-266z" />
<glyph unicode="&#x4dd;" horiz-adv-x="1754" d="M25 0l350 587l-332 495h368l217 -408h106v408h291v-408h107l218 408h368l-332 -495l349 -587h-374l-209 408h-127v-408h-291v408h-126l-209 -408h-374zM497 1258v204h266v-204h-266zM997 1258v204h266v-204h-266z" />
<glyph unicode="&#x4de;" horiz-adv-x="1345" d="M93 398l1 6h284q0 -85 76.5 -143t196.5 -58q142 0 224.5 58.5t82.5 149.5q0 115 -73.5 168.5t-217.5 53.5h-197v219h197q137 0 203 54t66 151q0 84 -73 139.5t-212 55.5q-109 0 -181 -52.5t-72 -134.5h-283l-1 6q-6 181 151 293.5t386 112.5q266 0 421 -108t155 -308 q0 -100 -65 -183t-179 -130q129 -43 198 -129t69 -211q0 -201 -166 -315t-433 -114q-230 0 -397 107t-161 312zM285 1622v204h266v-204h-266zM785 1622v204h266v-204h-266z" />
<glyph unicode="&#x4df;" horiz-adv-x="1053" d="M76 314l1 6h283q0 -56 46 -93t130 -37q81 0 121 39t40 96q0 70 -40 102.5t-123 32.5h-156v186h156q74 0 109 31t35 88q0 52 -33.5 88t-109.5 36q-71 0 -114.5 -32t-43.5 -86h-283l-2 6q-6 145 118 234.5t310 89.5q208 0 328.5 -82t120.5 -233q0 -73 -44 -133.5 t-122 -95.5q90 -32 137.5 -95.5t47.5 -155.5q0 -152 -129.5 -239t-338.5 -87q-185 0 -317.5 86t-126.5 248zM147 1278v204h266v-204h-266zM647 1278v204h266v-204h-266z" />
<glyph unicode="&#x4e0;" horiz-adv-x="1186" d="M89 398l2 6h283q0 -86 59 -143.5t156 -57.5q111 0 175.5 58.5t64.5 149.5q0 143 -70 208t-210 65h-135v182l337 359l-3 6h-604v225h946l1 -183l-365 -408q190 -31 292.5 -148.5t102.5 -308.5q0 -201 -147.5 -315t-384.5 -114q-208 0 -356.5 107t-143.5 312z" />
<glyph unicode="&#x4e1;" horiz-adv-x="1186" d="M89 23l2 6h283q0 -84 59 -141.5t156 -57.5q111 0 175.5 58.5t64.5 147.5q0 143 -70 208.5t-210 65.5h-135v181l331 360l-2 5h-606v226h953l1 -184l-361 -408q188 -32 289.5 -149.5t101.5 -307.5q0 -199 -147.5 -313.5t-384.5 -114.5q-208 0 -356.5 107.5t-143.5 310.5z " />
<glyph unicode="&#x4e2;" horiz-adv-x="1436" d="M126 0v1456h291v-970l6 -1l587 971h293v-1456h-293v971l-6 1l-587 -972h-291zM351 1613v165h731v-165h-731z" />
<glyph unicode="&#x4e3;" d="M107 0v1082h292v-658l6 -1l353 659h291v-1082h-291v660l-6 1l-353 -661h-292zM214 1272v165h731v-165h-731z" />
<glyph unicode="&#x4e4;" horiz-adv-x="1436" d="M126 0v1456h291v-970l6 -1l587 971h293v-1456h-293v971l-6 1l-587 -972h-291zM332 1601v204h266v-204h-266zM832 1601v204h266v-204h-266z" />
<glyph unicode="&#x4e5;" d="M107 0v1082h292v-658l6 -1l353 659h291v-1082h-291v660l-6 1l-353 -661h-292zM195 1258v204h266v-204h-266zM695 1258v204h266v-204h-266z" />
<glyph unicode="&#x4e6;" horiz-adv-x="1399" d="M92 597v262q0 267 167.5 442.5t436.5 175.5q271 0 441 -175.5t170 -442.5v-262q0 -268 -169.5 -443t-440.5 -175q-269 0 -437 175t-168 443zM316 1622v204h266v-204h-266zM383 597q0 -173 83 -282t231 -109q150 0 234 109t84 282v264q0 170 -85 279t-234 109t-231 -108.5 t-82 -279.5v-264zM816 1622v204h266v-204h-266z" />
<glyph unicode="&#x4e7;" d="M67 530v21q0 242 135 396.5t374 154.5q240 0 376 -154t136 -397v-21q0 -244 -135.5 -397.5t-374.5 -153.5q-240 0 -375.5 153.5t-135.5 397.5zM194 1279v204h266v-204h-266zM358 530q0 -148 52 -237.5t168 -89.5q113 0 165.5 90t52.5 237v21q0 144 -53 235t-167 91 q-113 0 -165.5 -91.5t-52.5 -234.5v-21zM694 1279v204h266v-204h-266z" />
<glyph unicode="&#x4e8;" horiz-adv-x="1410" d="M97 597v262q0 267 167.5 442.5t436.5 175.5q271 0 441 -175.5t170 -442.5v-262q0 -268 -169.5 -443t-440.5 -175q-269 0 -437 175t-168 443zM388 597q0 -173 83 -282t231 -109q150 0 234 109t84 282v43h-632v-43zM388 820h632v41q0 170 -85 279t-234 109t-231 -108.5 t-82 -279.5v-41z" />
<glyph unicode="&#x4e9;" d="M65 530v21q0 242 135 396.5t374 154.5q240 0 376 -154t136 -397v-21q0 -244 -135.5 -397.5t-374.5 -153.5q-240 0 -375.5 153.5t-135.5 397.5zM365 444q8 -110 60 -175.5t151 -65.5q96 0 147.5 65.5t60.5 175.5l-2 5h-415zM365 634l2 -5h416l2 5q-9 108 -61.5 175.5 t-149.5 67.5t-149 -67.5t-60 -175.5z" />
<glyph unicode="&#x4ea;" horiz-adv-x="1410" d="M97 597v262q0 267 167.5 442.5t436.5 175.5q271 0 441 -175.5t170 -442.5v-262q0 -268 -169.5 -443t-440.5 -175q-269 0 -437 175t-168 443zM345 1596v204h266v-204h-266zM388 597q0 -173 83 -282t231 -109q150 0 234 109t84 282v43h-632v-43zM388 820h632v41 q0 170 -85 279t-234 109t-231 -108.5t-82 -279.5v-41zM845 1596v204h266v-204h-266z" />
<glyph unicode="&#x4eb;" d="M65 530v21q0 242 135 396.5t374 154.5q240 0 376 -154t136 -397v-21q0 -244 -135.5 -397.5t-374.5 -153.5q-240 0 -375.5 153.5t-135.5 397.5zM176 1307v204h266v-204h-266zM365 444q8 -110 60 -175.5t151 -65.5q96 0 147.5 65.5t60.5 175.5l-2 5h-415zM365 634l2 -5h416 l2 5q-9 108 -61.5 175.5t-149.5 67.5t-149 -67.5t-60 -175.5zM676 1307v204h266v-204h-266z" />
<glyph unicode="&#x4ec;" horiz-adv-x="1288" d="M91 475l2 6h283q0 -142 60.5 -209.5t192.5 -67.5q129 0 199 104.5t70 273.5v43h-447v225h447v23q0 168 -70 274t-199 106q-131 0 -191 -68.5t-60 -210.5h-284l-2 6q-5 232 137.5 365t399.5 133q253 0 407.5 -169t154.5 -436v-289q0 -268 -154.5 -436t-407.5 -168 q-259 0 -401 128.5t-137 366.5zM260 1623v204h266v-204h-266zM760 1623v204h266v-204h-266z" />
<glyph unicode="&#x4ed;" horiz-adv-x="1064" d="M68 393l2 6h266q0 -85 45 -140.5t125 -55.5q96 0 144.5 69.5t56.5 180.5l-3 5h-281v175h280l2 5q-8 106 -56.5 172.5t-143.5 66.5q-77 0 -123 -46t-46 -120h-266l-2 6q-5 163 122 274t315 111q237 0 369 -154.5t132 -392.5v-30q0 -238 -132 -392t-368 -154 q-199 0 -321 113.5t-117 300.5zM153 1279v204h266v-204h-266zM653 1279v204h266v-204h-266z" />
<glyph unicode="&#x4ee;" horiz-adv-x="1293" d="M36 1456h315l298 -647l23 -77h6l275 724h309l-497 -1180q-64 -143 -149.5 -220t-245.5 -77q-25 0 -57 1.5t-48 3.5l-2 223q11 -2 38 -3t41 -1q80 0 119.5 35t65.5 106l22 55zM282 1613v165h731v-165h-731z" />
<glyph unicode="&#x4ef;" horiz-adv-x="1046" d="M5 1082h314l183 -628l12 -60h6l207 688h314l-439 -1244q-46 -116 -125 -195.5t-237 -79.5q-37 0 -68.5 6t-76.5 17l34 213q13 -2 28 -4t27 -2q72 0 111 35.5t60 88.5l34 84zM159 1272v165h731v-165h-731z" />
<glyph unicode="&#x4f0;" horiz-adv-x="1293" d="M36 1456h315l298 -647l23 -77h6l275 724h309l-497 -1180q-64 -143 -149.5 -220t-245.5 -77q-25 0 -57 1.5t-48 3.5l-2 223q11 -2 38 -3t41 -1q80 0 119.5 35t65.5 106l22 55zM263 1601v204h266v-204h-266zM763 1601v204h266v-204h-266z" />
<glyph unicode="&#x4f1;" horiz-adv-x="1046" d="M5 1082h314l183 -628l12 -60h6l207 688h314l-439 -1244q-46 -116 -125 -195.5t-237 -79.5q-37 0 -68.5 6t-76.5 17l34 213q13 -2 28 -4t27 -2q72 0 111 35.5t60 88.5l34 84zM142 1258v204h266v-204h-266zM642 1258v204h266v-204h-266z" />
<glyph unicode="&#x4f2;" horiz-adv-x="1293" d="M36 1456h315l298 -647l23 -77h6l275 724h309l-497 -1180q-64 -143 -149.5 -220t-245.5 -77q-25 0 -57 1.5t-48 3.5l-2 223q11 -2 38 -3t41 -1q80 0 119.5 35t65.5 106l22 55zM337 1601l198 266h275l2 -5l-240 -261h-235zM683 1606l240 261h279l2 -6l-285 -260h-234z" />
<glyph unicode="&#x4f3;" horiz-adv-x="1046" d="M5 1082h314l183 -628l12 -60h6l207 688h314l-439 -1244q-46 -116 -125 -195.5t-237 -79.5q-37 0 -68.5 6t-76.5 17l34 213q13 -2 28 -4t27 -2q72 0 111 35.5t60 88.5l34 84zM214 1258l198 266h275l2 -5l-240 -261h-235zM560 1263l240 261h279l2 -6l-285 -260h-234z" />
<glyph unicode="&#x4f4;" horiz-adv-x="1423" d="M139 1003v453h292v-453q0 -142 63.5 -196t205.5 -54q62 0 145.5 8.5t149.5 24.5v670h293v-1456h-293v561q-66 -16 -148 -24.5t-147 -8.5q-268 0 -414.5 116t-146.5 359zM374 1601v204h266v-204h-266zM874 1601v204h266v-204h-266z" />
<glyph unicode="&#x4f5;" horiz-adv-x="1147" d="M103 742v340h292v-340q0 -107 47 -148t159 -41q37 0 73.5 4t74.5 12v513h292v-1082h-292v343q-37 -8 -75.5 -11.5t-72.5 -3.5q-239 0 -368.5 102t-129.5 312zM187 1258v204h266v-204h-266zM687 1258v204h266v-204h-266z" />
<glyph unicode="&#x4f6;" horiz-adv-x="1141" d="M136 0v1456h949v-225h-657v-1231h-292zM319 234h292v-591h-292v591z" />
<glyph unicode="&#x4f7;" horiz-adv-x="855" d="M107 0v1082h739v-226h-447v-856h-292zM247 234h292v-591h-292v591z" />
<glyph unicode="&#x4f8;" horiz-adv-x="1785" d="M149 0v1456h292v-512h250q251 0 399 -131t148 -339q0 -210 -148.5 -342t-398.5 -132h-542zM441 224h250q123 0 189.5 73t66.5 179q0 102 -66.5 172.5t-189.5 70.5h-250v-495zM509 1601v204h266v-204h-266zM1009 1601v204h266v-204h-266zM1369 0v1456h292v-1456h-292z" />
<glyph unicode="&#x4f9;" horiz-adv-x="1703" d="M149 0v1082h293v-350h203q218 0 343 -100.5t125 -263.5q0 -165 -125 -266.5t-343 -101.5h-496zM442 223h203q89 0 133 40t44 103q0 61 -44 101.5t-133 40.5h-203v-285zM465 1258v204h266v-204h-266zM965 1258v204h266v-204h-266zM1215 0v1082h292v-1082h-292z" />
<glyph unicode="&#x4fa;" horiz-adv-x="1231" d="M75 711v181h671v-181h-671zM164 -420l14 224q22 -5 47 -8.5t51 -3.5q58 0 89 43t31 125v287h293v-287q0 -190 -101 -293.5t-281 -103.5q-40 0 -73 4t-70 13zM212 0v1456h949v-225h-657v-1231h-292z" />
<glyph unicode="&#x4fb;" horiz-adv-x="864" d="M76 537v181h671v-181h-671zM148 -420l14 224q22 -5 47 -8.5t51 -3.5q58 0 89 43t31 125v287h293v-287q0 -190 -101 -293.5t-281 -103.5q-40 0 -73 4t-70 13zM205 0v1082h739v-226h-447v-856h-292z" />
<glyph unicode="&#x4fc;" horiz-adv-x="1303" d="M31 0l443 734l-432 722h338l269 -516l273 516h340l-432 -722l457 -734h-353l-281 525l-281 -525h-341zM899 -420l14 224q22 -5 47 -8.5t51 -3.5q58 0 89 43t31 125v287h293v-287q0 -190 -101 -293.5t-281 -103.5q-40 0 -73 4t-70 13z" />
<glyph unicode="&#x4fd;" horiz-adv-x="1046" d="M19 0l337 547l-327 535h328l162 -344h6l166 344h330l-326 -535l337 -547h-329l-177 359l-177 -359h-330zM658 -420l14 224q22 -5 47 -8.5t51 -3.5q58 0 89 43t31 125v287h293v-287q0 -190 -101 -293.5t-281 -103.5q-40 0 -73 4t-70 13z" />
<glyph unicode="&#x4fe;" horiz-adv-x="1303" d="M31 0l396 656h-104v181h89l-370 619h338l269 -516l273 516h340l-371 -619h103v-181h-116l409 -656h-353l-281 525l-281 -525h-341z" />
<glyph unicode="&#x4ff;" horiz-adv-x="1046" d="M19 0l286 465h-111v181h101l-266 436h328l162 -344h6l166 344h330l-266 -436h110v-181h-120l287 -465h-329l-177 359l-177 -359h-330z" />
<glyph unicode="&#x500;" horiz-adv-x="1283" d="M76 474q0 208 147.5 339t398.5 131h251v512h292v-1456h-543q-251 0 -398.5 132t-147.5 342zM368 476q0 -106 65.5 -179t188.5 -73h251v495h-251q-123 0 -188.5 -70.5t-65.5 -172.5z" />
<glyph unicode="&#x501;" d="M67 511v21q0 256 110.5 413t311.5 157q81 0 146 -35t114 -100v593h293v-1560h-251l-24 132q-51 -75 -120.5 -114t-159.5 -39q-199 0 -309.5 146t-110.5 386zM358 511q0 -142 48 -223.5t156 -81.5q63 0 110 25.5t77 74.5v461q-30 51 -76.5 79.5t-108.5 28.5 q-107 0 -156.5 -95t-49.5 -248v-21z" />
<glyph unicode="&#x502;" horiz-adv-x="1848" d="M114 474q0 208 148 339t399 131h251v512h291v-1231h69q91 1 140.5 53.5t53.5 146.5q1 76 -14.5 159t-45.5 161h285q33 -99 51 -174t16 -146q-4 -205 -144 -315t-342 -110h-611q-251 0 -399 132t-148 342zM406 476q0 -106 66 -179t189 -73h251v495h-251 q-124 0 -189.5 -70.5t-65.5 -172.5z" />
<glyph unicode="&#x503;" horiz-adv-x="1748" d="M90 511v21q0 256 111 413t312 157q75 0 136 -29.5t108 -85.5v573h292v-1188q-1 -74 31.5 -120t87.5 -46q98 1 151.5 86.5t57.5 236.5q1 97 -14.5 199t-45.5 204h285q34 -127 51.5 -219.5t15.5 -183.5q-4 -266 -147 -408t-354 -142q-132 -2 -223 41.5t-138 138.5 q-52 -88 -125 -134t-171 -46q-200 0 -310.5 146t-110.5 386zM382 511q0 -142 47.5 -223.5t155.5 -81.5q59 0 104.5 23t75.5 66q-4 18 -6 37.5t-2 39.5v418q-30 41 -72.5 63t-97.5 22q-107 0 -156 -95t-49 -248v-21z" />
<glyph unicode="&#x504;" horiz-adv-x="1615" d="M65 1228v228h344q261 0 399.5 -106.5t138.5 -309.5q0 -116 -70 -199t-203 -132q143 -35 206 -118t63 -207v-68q-1 -48 21.5 -79t61.5 -31q93 1 144 86.5t55 236.5q1 97 -14.5 199t-45.5 204h285q34 -134 51 -223.5t16 -179.5q-4 -266 -148.5 -408t-357.5 -142 q-168 -3 -260 78.5t-100 258.5v66q0 99 -56 159.5t-149 60.5h-237v227h180q141 0 203.5 52t62.5 161q0 88 -59.5 137t-186.5 49h-344z" />
<glyph unicode="&#x505;" horiz-adv-x="1316" d="M45 1082h268q213 0 330 -85t117 -238q0 -79 -41 -135.5t-121 -92.5q102 -25 147.5 -84t45.5 -144v-50q-1 -44 14.5 -68.5t53.5 -24.5q68 1 106 69t42 190q1 76 -15 158t-46 161h285q34 -102 52 -175t16 -144q-4 -215 -125.5 -330.5t-299.5 -115.5q-184 -3 -274.5 54 t-100.5 187v75q0 50 -28.5 78t-81.5 28h-257l-2 213h183q80 0 117.5 30t37.5 86q0 60 -38 96t-117 36h-262z" />
<glyph unicode="&#x506;" horiz-adv-x="1203" d="M66 1456h310q248 0 389 -113.5t141 -316.5q0 -113 -59 -194t-173 -131q128 -38 184.5 -126.5t56.5 -219.5v-107h164v-237l-159 -315h-195l65 304h-103q-40 32 -51.5 106t-11.5 143v104q0 108 -59.5 169t-168.5 61h-266l-2 225h243q123 0 183 51.5t60 153.5 q0 100 -60.5 159t-177.5 59h-304z" />
<glyph unicode="&#x507;" horiz-adv-x="1149" d="M110 1082h306q215 0 342 -93t127 -252q0 -80 -41.5 -140.5t-121.5 -101.5q93 -34 134.5 -100.5t41.5 -159.5v-7h165v-237l-159 -315h-195l70 324h-145q-18 17 -22.5 65t-4.5 94v75q0 76 -47 116.5t-136 40.5h-260l-2 196h254q84 0 130 34.5t46 94.5q0 61 -46.5 102 t-129.5 41h-298z" />
<glyph unicode="&#x508;" horiz-adv-x="1978" d="M65 0v227h41q124 0 179 126.5t55 414.5v688h964v-1084q-1 -74 31.5 -120t88.5 -46q97 1 151 86.5t58 236.5q1 97 -15 198.5t-46 204.5h285q33 -122 51 -216.5t16 -186.5q-4 -266 -147 -408t-353 -142q-191 -3 -296 92t-115 301v856h-381v-460q0 -398 -118.5 -583 t-395.5 -185h-53z" />
<glyph unicode="&#x509;" horiz-adv-x="1737" d="M60 0l4 242l41 1q90 0 128.5 88.5t38.5 290.5v460h787v-710q-1 -74 35.5 -120t99.5 -46q75 1 116.5 75.5t45.5 206.5q1 92 -14.5 188.5t-45.5 192.5h285q34 -123 52 -209t16 -172q-4 -246 -134 -377.5t-321 -131.5q-199 -3 -308 92t-119 301v481h-204v-231 q0 -318 -99.5 -470t-331.5 -152h-72z" />
<glyph unicode="&#x50a;" horiz-adv-x="2038" d="M133 0v1456h293v-626h589v626h292v-1084q-1 -74 31.5 -120t87.5 -46q98 1 152 86.5t58 236.5q1 97 -15 198.5t-46 204.5h285q34 -127 51.5 -219.5t15.5 -183.5q-4 -266 -147 -408t-354 -142q-191 -3 -296 92t-115 301v233h-589v-605h-293z" />
<glyph unicode="&#x50b;" horiz-adv-x="1690" d="M92 0v1082h292v-426h367v426h292v-710q-2 -74 34.5 -120t99.5 -46q76 1 118 75.5t46 206.5q1 91 -14.5 187.5t-45.5 193.5h284q34 -126 51 -211t16 -170q-4 -246 -134 -377.5t-321 -131.5q-198 -3 -307 92t-119 301v57h-367v-429h-292z" />
<glyph unicode="&#x50c;" horiz-adv-x="1296" d="M75 597v262q0 268 174 443t452 175q113 0 202 -22.5t157 -66.5l-63 -207q-67 33 -139 50.5t-157 17.5q-153 0 -243.5 -112t-90.5 -276v-264q0 -167 90.5 -279t243.5 -112q112 1 173.5 62t65.5 170q1 80 -12.5 167t-37.5 181h284q38 -166 48 -219.5t9 -128.5 q-4 -223 -155 -341t-375 -118q-278 0 -452 174.5t-174 443.5z" />
<glyph unicode="&#x50d;" horiz-adv-x="1085" d="M70 520v42q0 226 140 383t381 157q94 0 165 -17.5t118 -48.5l-46 -220q-47 27 -107.5 42.5t-129.5 15.5q-113 0 -171 -93.5t-58 -218.5v-42q0 -128 62.5 -221t187.5 -93q69 1 96.5 30.5t30.5 90.5q0 52 -5 106.5t-14 103.5h284q13 -65 20 -115t7 -95q-4 -171 -119 -259.5 t-300 -88.5q-252 0 -397 156.5t-145 384.5z" />
<glyph unicode="&#x50e;" horiz-adv-x="1446" d="M32 1228v228h1152v-228h-427v-856q-1 -74 31.5 -120t87.5 -46q98 1 152 86.5t58 236.5q1 97 -15 198.5t-46 204.5h285q33 -122 51 -216.5t16 -186.5q-4 -266 -147 -408t-354 -142q-191 -3 -296 92t-115 301v856h-433z" />
<glyph unicode="&#x50f;" horiz-adv-x="1305" d="M66 856v226h907v-226h-321v-484q-1 -74 35 -120t99 -46q76 1 118 58.5t46 160.5q1 69 -14.5 144.5t-45.5 147.5h285q34 -93 52 -160.5t16 -131.5q-5 -215 -135.5 -330.5t-321.5 -115.5q-198 -3 -307 92t-119 301v484h-294z" />
<glyph unicode="&#x510;" horiz-adv-x="1345" d="M111 408q0 124 68 210.5t198 129.5q-115 47 -179.5 130t-64.5 183q0 200 155 308t422 108q228 0 385 -112.5t152 -293.5l-1 -6h-284q0 82 -72.5 134.5t-179.5 52.5q-141 0 -213 -55.5t-72 -139.5q0 -97 65 -151t203 -54h197v-219h-197q-145 0 -218 -53.5t-73 -168.5 q0 -91 82 -149.5t226 -58.5q118 0 195.5 58t77.5 143h283l1 -6q5 -205 -162 -312t-395 -107q-268 0 -433.5 114t-165.5 315z" />
<glyph unicode="&#x511;" horiz-adv-x="1140" d="M95 306q0 90 52.5 154t151.5 97q-87 36 -136 96.5t-49 132.5q0 150 132 232.5t352 82.5q193 0 324 -89.5t126 -234.5l-2 -6h-282q0 54 -51 86t-130 32q-89 0 -133.5 -37t-44.5 -87q0 -55 46 -86.5t133 -31.5h187v-189h-187q-96 0 -147 -32t-51 -101q0 -55 51.5 -94.5 t144.5 -39.5q94 0 147 37t53 92h281l2 -6q5 -162 -134.5 -248t-332.5 -86q-220 0 -361.5 87.5t-141.5 238.5z" />
<glyph unicode="&#x512;" horiz-adv-x="1447" d="M42 0v224h40q137 0 184 122t47 447v663h998v-1456h-292v1231h-414v-438q0 -422 -127.5 -607.5t-392.5 -185.5h-43zM1078 -420l14 224q22 -5 47 -8.5t51 -3.5q58 0 89 43t31 125v287h293v-287q0 -190 -101 -293.5t-281 -103.5q-40 0 -73 4t-70 13z" />
<glyph unicode="&#x513;" horiz-adv-x="1149" d="M15 230l31 1q100 0 130 82t30 308v461h843v-1082h-291v856h-260v-235q0 -320 -98 -470.5t-335 -150.5h-47zM816 -420l14 224q22 -5 47 -8.5t51 -3.5q58 0 89 43t31 125v287h293v-287q0 -190 -101 -293.5t-281 -103.5q-40 0 -73 4t-70 13z" />
<glyph unicode="&#x1e00;" horiz-adv-x="1311" d="M12 0l501 1456h299l499 -1456h-295l-99 314h-511l-99 -314h-295zM478 543h367l-180 572h-6zM481 -228q0 71 53 118t131 47q76 0 128 -47t52 -118q0 -70 -52 -116t-128 -46q-79 0 -131.5 46t-52.5 116zM595 -228q0 -29 19.5 -48.5t50.5 -19.5q29 0 47.5 19t18.5 49 q0 32 -18.5 51.5t-47.5 19.5q-31 0 -50.5 -19.5t-19.5 -51.5z" />
<glyph unicode="&#x1e01;" horiz-adv-x="1100" d="M55 305q0 159 122.5 246.5t357.5 87.5h163v86q0 78 -41 121t-121 43q-71 0 -109.5 -34.5t-38.5 -95.5l-282 1l-1 6q-7 137 119 236.5t331 99.5q194 0 315 -98.5t121 -280.5v-447q0 -76 11.5 -143t36.5 -133h-292q-16 37 -27.5 78t-16.5 84q-45 -79 -118.5 -131 t-175.5 -52q-170 0 -262 87.5t-92 238.5zM288 -214q0 71 53 118t131 47q76 0 128 -47t52 -118q0 -70 -52 -116t-128 -46q-79 0 -131.5 46t-52.5 116zM346 315q0 -54 36 -87t98 -33q77 0 137 38t81 88v153h-163q-93 0 -141 -46.5t-48 -112.5zM402 -214q0 -29 19.5 -48.5 t50.5 -19.5q29 0 47.5 19t18.5 49q0 32 -18.5 51.5t-47.5 19.5q-31 0 -50.5 -19.5t-19.5 -51.5z" />
<glyph unicode="&#x1e3e;" horiz-adv-x="1787" d="M136 0v1456h381l371 -1073h6l374 1073h382v-1456h-292v434l28 643l-6 1l-390 -1078h-196l-388 1074l-6 -1l28 -639v-434h-292zM745 1560l199 266h309l2 -6l-277 -260h-233z" />
<glyph unicode="&#x1e3f;" horiz-adv-x="1772" d="M112 0v1082h271l12 -143q52 78 130.5 120.5t181.5 42.5q104 0 178 -46t112 -139q50 87 130 136t188 49q160 0 252.5 -110.5t92.5 -336.5v-655h-292v656q0 123 -40 171t-119 48q-62 0 -107.5 -27.5t-72.5 -76.5q0 -19 1 -32.5t1 -27.5v-711h-291v656q0 120 -40 169.5 t-120 49.5q-59 0 -103.5 -22.5t-73.5 -63.5v-789h-291zM759 1238l199 266h309l2 -6l-277 -260h-233z" />
<glyph unicode="&#x1e80;" horiz-adv-x="1815" d="M24 1456h286l209 -997l6 -1l273 998h215l275 -998h6l208 998h285l-340 -1456h-271l-267 961h-6l-267 -961h-271zM546 1820l2 6h309l197 -266h-237z" />
<glyph unicode="&#x1e81;" horiz-adv-x="1507" d="M29 1082h274l143 -693h6l202 693h195l204 -695h6l141 695h274l-275 -1082h-244l-201 644h-6l-201 -644h-243zM392 1477l2 6h309l197 -266h-237z" />
<glyph unicode="&#x1e82;" horiz-adv-x="1815" d="M24 1456h286l209 -997l6 -1l273 998h215l275 -998h6l208 998h285l-340 -1456h-271l-267 961h-6l-267 -961h-271zM758 1560l199 266h309l2 -6l-277 -260h-233z" />
<glyph unicode="&#x1e83;" horiz-adv-x="1507" d="M29 1082h274l143 -693h6l202 693h195l204 -695h6l141 695h274l-275 -1082h-244l-201 644h-6l-201 -644h-243zM604 1217l199 266h309l2 -6l-277 -260h-233z" />
<glyph unicode="&#x1e84;" horiz-adv-x="1815" d="M24 1456h286l209 -997l6 -1l273 998h215l275 -998h6l208 998h285l-340 -1456h-271l-267 961h-6l-267 -961h-271zM523 1601v204h266v-204h-266zM1023 1601v204h266v-204h-266z" />
<glyph unicode="&#x1e85;" horiz-adv-x="1507" d="M29 1082h274l143 -693h6l202 693h195l204 -695h6l141 695h274l-275 -1082h-244l-201 644h-6l-201 -644h-243zM369 1258v204h266v-204h-266zM869 1258v204h266v-204h-266z" />
<glyph unicode="&#x1ea0;" horiz-adv-x="1311" d="M12 0l501 1456h299l499 -1456h-295l-99 314h-511l-99 -314h-295zM478 543h367l-180 572h-6zM491 -113h327v-241h-327v241z" />
<glyph unicode="&#x1ea1;" horiz-adv-x="1100" d="M55 305q0 159 122.5 246.5t357.5 87.5h163v86q0 78 -41 121t-121 43q-71 0 -109.5 -34.5t-38.5 -95.5l-282 1l-1 6q-7 137 119 236.5t331 99.5q194 0 315 -98.5t121 -280.5v-447q0 -76 11.5 -143t36.5 -133h-292q-16 37 -27.5 78t-16.5 84q-45 -79 -118.5 -131 t-175.5 -52q-170 0 -262 87.5t-92 238.5zM314 -99h327v-241h-327v241zM346 315q0 -54 36 -87t98 -33q77 0 137 38t81 88v153h-163q-93 0 -141 -46.5t-48 -112.5z" />
<glyph unicode="&#x1ea2;" horiz-adv-x="1311" d="M12 0l501 1456h299l499 -1456h-295l-99 314h-511l-99 -314h-295zM478 543h367l-180 572h-6zM523 1858l7 133q185 0 283 -52t98 -143q0 -64 -43 -100t-107 -45v-65h-218l-16 137q74 3 105.5 18t26.5 45v6q5 35 -32 50.5t-104 15.5z" />
<glyph unicode="&#x1ea3;" horiz-adv-x="1100" d="M55 305q0 159 122.5 246.5t357.5 87.5h163v86q0 78 -41 121t-121 43q-71 0 -109.5 -34.5t-38.5 -95.5l-282 1l-1 6q-7 137 119 236.5t331 99.5q194 0 315 -98.5t121 -280.5v-447q0 -76 11.5 -143t36.5 -133h-292q-16 37 -27.5 78t-16.5 84q-45 -79 -118.5 -131 t-175.5 -52q-170 0 -262 87.5t-92 238.5zM346 315q0 -54 36 -87t98 -33q77 0 137 38t81 88v153h-163q-93 0 -141 -46.5t-48 -112.5zM415 1536l7 133q185 0 283 -52t98 -143q0 -64 -43 -100t-107 -45v-65h-218l-16 137q74 3 105.5 18t26.5 45v6q5 35 -32 50.5t-104 15.5z" />
<glyph unicode="&#x1ea4;" horiz-adv-x="1311" d="M12 0l501 1456h299l499 -1456h-295l-99 314h-511l-99 -314h-295zM240 1589l297 253h240l296 -253l-2 -6h-262l-153 143l-151 -143h-263zM478 543h367l-180 572h-6zM984 1755l148 271h270l-214 -271h-204z" />
<glyph unicode="&#x1ea5;" horiz-adv-x="1100" d="M55 305q0 159 122.5 246.5t357.5 87.5h163v86q0 78 -41 121t-121 43q-71 0 -109.5 -34.5t-38.5 -95.5l-282 1l-1 6q-7 137 119 236.5t331 99.5q194 0 315 -98.5t121 -280.5v-447q0 -76 11.5 -143t36.5 -133h-292q-16 37 -27.5 78t-16.5 84q-45 -79 -118.5 -131 t-175.5 -52q-170 0 -262 87.5t-92 238.5zM130 1267l297 253h240l296 -253l-2 -6h-262l-153 143l-151 -143h-263zM346 315q0 -54 36 -87t98 -33q77 0 137 38t81 88v153h-163q-93 0 -141 -46.5t-48 -112.5zM874 1433l148 271h270l-214 -271h-204z" />
<glyph unicode="&#x1ea6;" horiz-adv-x="1311" d="M-88 2018h268l149 -271h-204zM12 0l501 1456h299l499 -1456h-295l-99 314h-511l-99 -314h-295zM239 1581l297 253h240l296 -253l-2 -6h-262l-152 143l-152 -143h-263zM478 543h367l-180 572h-6z" />
<glyph unicode="&#x1ea7;" horiz-adv-x="1100" d="M-200 1696h268l149 -271h-204zM55 305q0 159 122.5 246.5t357.5 87.5h163v86q0 78 -41 121t-121 43q-71 0 -109.5 -34.5t-38.5 -95.5l-282 1l-1 6q-7 137 119 236.5t331 99.5q194 0 315 -98.5t121 -280.5v-447q0 -76 11.5 -143t36.5 -133h-292q-16 37 -27.5 78t-16.5 84 q-45 -79 -118.5 -131t-175.5 -52q-170 0 -262 87.5t-92 238.5zM127 1259l297 253h240l296 -253l-2 -6h-262l-152 143l-152 -143h-263zM346 315q0 -54 36 -87t98 -33q77 0 137 38t81 88v153h-163q-93 0 -141 -46.5t-48 -112.5z" />
<glyph unicode="&#x1ea8;" horiz-adv-x="1311" d="M12 0l501 1456h299l499 -1456h-295l-99 314h-511l-99 -314h-295zM239 1553l293 253h250l292 -253l-3 -6h-255l-160 153l-159 -153h-255zM478 543h367l-180 572h-6zM983 1914l7 111q156 0 238.5 -43.5t82.5 -120.5q0 -55 -36.5 -85.5t-89.5 -37.5v-55h-185l-13 116 q62 3 88.5 15t22.5 37v6q4 30 -27 43.5t-88 13.5z" />
<glyph unicode="&#x1ea9;" horiz-adv-x="1100" d="M55 305q0 159 122.5 246.5t357.5 87.5h163v86q0 78 -41 121t-121 43q-71 0 -109.5 -34.5t-38.5 -95.5l-282 1l-1 6q-7 137 119 236.5t331 99.5q194 0 315 -98.5t121 -280.5v-447q0 -76 11.5 -143t36.5 -133h-292q-16 37 -27.5 78t-16.5 84q-45 -79 -118.5 -131 t-175.5 -52q-170 0 -262 87.5t-92 238.5zM121 1233l293 253h250l292 -253l-3 -6h-255l-160 153l-159 -153h-255zM346 315q0 -54 36 -87t98 -33q77 0 137 38t81 88v153h-163q-93 0 -141 -46.5t-48 -112.5zM865 1594l7 111q156 0 238.5 -43.5t82.5 -120.5q0 -55 -36.5 -85.5 t-89.5 -37.5v-55h-185l-13 116q62 3 88.5 15t22.5 37v6q4 30 -27 43.5t-88 13.5z" />
<glyph unicode="&#x1eaa;" horiz-adv-x="1311" d="M12 0l501 1456h299l499 -1456h-295l-99 314h-511l-99 -314h-295zM243 1540l294 228h238l292 -228l-2 -6h-251l-158 137l-159 -137h-252zM390 1855q0 69 40.5 123.5t104.5 54.5q41 0 118 -34t115 -34q24 0 40.5 27t16.5 62l113 -39q0 -70 -42 -123t-106 -53q-51 0 -123 35 t-109 35q-25 0 -40.5 -25t-15.5 -59zM478 543h367l-180 572h-6z" />
<glyph unicode="&#x1eab;" horiz-adv-x="1100" d="M55 305q0 159 122.5 246.5t357.5 87.5h163v86q0 78 -41 121t-121 43q-71 0 -109.5 -34.5t-38.5 -95.5l-282 1l-1 6q-7 137 119 236.5t331 99.5q194 0 315 -98.5t121 -280.5v-447q0 -76 11.5 -143t36.5 -133h-292q-16 37 -27.5 78t-16.5 84q-45 -79 -118.5 -131 t-175.5 -52q-170 0 -262 87.5t-92 238.5zM120 1220l294 228h238l292 -228l-2 -6h-251l-158 137l-159 -137h-252zM267 1535q0 69 40.5 123.5t104.5 54.5q41 0 118 -34t115 -34q24 0 40.5 27t16.5 62l113 -39q0 -70 -42 -123t-106 -53q-51 0 -123 35t-109 35q-25 0 -40.5 -25 t-15.5 -59zM346 315q0 -54 36 -87t98 -33q77 0 137 38t81 88v153h-163q-93 0 -141 -46.5t-48 -112.5z" />
<glyph unicode="&#x1eac;" horiz-adv-x="1311" d="M12 0l501 1456h299l499 -1456h-295l-99 314h-511l-99 -314h-295zM286 1592v26l282 240h169l287 -243v-23h-232l-140 133l-139 -133h-227zM478 543h367l-180 572h-6zM491 -113h327v-241h-327v241z" />
<glyph unicode="&#x1ead;" horiz-adv-x="1100" d="M55 305q0 159 122.5 246.5t357.5 87.5h163v86q0 78 -41 121t-121 43q-71 0 -109.5 -34.5t-38.5 -95.5l-282 1l-1 6q-7 137 119 236.5t331 99.5q194 0 315 -98.5t121 -280.5v-447q0 -76 11.5 -143t36.5 -133h-292q-16 37 -27.5 78t-16.5 84q-45 -79 -118.5 -131 t-175.5 -52q-170 0 -262 87.5t-92 238.5zM178 1270v26l282 240h169l287 -243v-23h-232l-140 133l-139 -133h-227zM314 -99h327v-241h-327v241zM346 315q0 -54 36 -87t98 -33q77 0 137 38t81 88v153h-163q-93 0 -141 -46.5t-48 -112.5z" />
<glyph unicode="&#x1eae;" horiz-adv-x="1311" d="M12 0l501 1456h299l499 -1456h-295l-99 314h-511l-99 -314h-295zM316 1800l2 6h212q0 -43 30.5 -71t95.5 -28q63 0 94 28t31 71h213l2 -6q6 -105 -88 -171.5t-252 -66.5q-159 0 -253 66.5t-87 171.5zM478 543h367l-180 572h-6zM576 1843l123 189h205l2 -5l-170 -184h-160 z" />
<glyph unicode="&#x1eaf;" horiz-adv-x="1100" d="M55 305q0 159 122.5 246.5t357.5 87.5h163v86q0 78 -41 121t-121 43q-71 0 -109.5 -34.5t-38.5 -95.5l-282 1l-1 6q-7 137 119 236.5t331 99.5q194 0 315 -98.5t121 -280.5v-447q0 -76 11.5 -143t36.5 -133h-292q-16 37 -27.5 78t-16.5 84q-45 -79 -118.5 -131 t-175.5 -52q-170 0 -262 87.5t-92 238.5zM191 1474l2 6h212q0 -43 30.5 -71t95.5 -28q63 0 94 28t31 71h213l2 -6q6 -105 -88 -171.5t-252 -66.5q-159 0 -253 66.5t-87 171.5zM346 315q0 -54 36 -87t98 -33q77 0 137 38t81 88v153h-163q-93 0 -141 -46.5t-48 -112.5z M451 1517l123 189h205l2 -5l-170 -184h-160z" />
<glyph unicode="&#x1eb0;" horiz-adv-x="1311" d="M12 0l501 1456h299l499 -1456h-295l-99 314h-511l-99 -314h-295zM316 1800l2 6h212q0 -43 30.5 -71t95.5 -28q63 0 94 28t31 71h213l2 -6q6 -105 -88 -171.5t-252 -66.5q-159 0 -253 66.5t-87 171.5zM400 2026l3 6h215l138 -189h-182zM478 543h367l-180 572h-6z" />
<glyph unicode="&#x1eb1;" horiz-adv-x="1100" d="M55 305q0 159 122.5 246.5t357.5 87.5h163v86q0 78 -41 121t-121 43q-71 0 -109.5 -34.5t-38.5 -95.5l-282 1l-1 6q-7 137 119 236.5t331 99.5q194 0 315 -98.5t121 -280.5v-447q0 -76 11.5 -143t36.5 -133h-292q-16 37 -27.5 78t-16.5 84q-45 -79 -118.5 -131 t-175.5 -52q-170 0 -262 87.5t-92 238.5zM208 1474l2 6h212q0 -43 30.5 -71t95.5 -28q63 0 94 28t31 71h213l2 -6q6 -105 -88 -171.5t-252 -66.5q-159 0 -253 66.5t-87 171.5zM292 1700l3 6h215l138 -189h-182zM346 315q0 -54 36 -87t98 -33q77 0 137 38t81 88v153h-163 q-93 0 -141 -46.5t-48 -112.5z" />
<glyph unicode="&#x1eb2;" horiz-adv-x="1311" d="M12 0l501 1456h299l499 -1456h-295l-99 314h-511l-99 -314h-295zM315 1800l1 6h214q0 -42 30.5 -68.5t96.5 -26.5q63 0 94 26.5t31 68.5h214l1 -6q6 -100 -87.5 -163t-252.5 -63q-161 0 -255 63t-87 163zM478 543h367l-180 572h-6zM528 2068l7 104q181 0 277 -40t96 -111 q0 -50 -42 -77.5t-105 -34.5v-53h-212l-16 109q71 2 101.5 13t25.5 34v6q5 26 -30.5 38t-101.5 12z" />
<glyph unicode="&#x1eb3;" horiz-adv-x="1100" d="M55 305q0 159 122.5 246.5t357.5 87.5h163v86q0 78 -41 121t-121 43q-71 0 -109.5 -34.5t-38.5 -95.5l-282 1l-1 6q-7 137 119 236.5t331 99.5q194 0 315 -98.5t121 -280.5v-447q0 -76 11.5 -143t36.5 -133h-292q-16 37 -27.5 78t-16.5 84q-45 -79 -118.5 -131 t-175.5 -52q-170 0 -262 87.5t-92 238.5zM193 1474l1 6h214q0 -42 30.5 -68.5t96.5 -26.5q63 0 94 26.5t31 68.5h214l1 -6q6 -100 -87.5 -163t-252.5 -63q-161 0 -255 63t-87 163zM346 315q0 -54 36 -87t98 -33q77 0 137 38t81 88v153h-163q-93 0 -141 -46.5t-48 -112.5z M406 1742l7 104q181 0 277 -40t96 -111q0 -50 -42 -77.5t-105 -34.5v-53h-212l-16 109q71 2 101.5 13t25.5 34v6q5 26 -30.5 38t-101.5 12z" />
<glyph unicode="&#x1eb4;" horiz-adv-x="1311" d="M12 0l501 1456h299l499 -1456h-295l-99 314h-511l-99 -314h-295zM318 1800l2 6h212q0 -43 30 -69.5t94 -26.5q63 0 93.5 26.5t30.5 69.5h213l1 -6q6 -100 -87 -164t-251 -64t-251.5 64t-86.5 164zM362 1912q0 73 46.5 127.5t117.5 54.5q43 0 117.5 -33.5t116.5 -33.5 q27 0 46.5 24.5t19.5 60.5l122 -34q0 -74 -47.5 -127.5t-116.5 -53.5q-56 0 -125.5 34t-108.5 34q-29 0 -48 -25t-19 -61zM478 543h367l-180 572h-6z" />
<glyph unicode="&#x1eb5;" horiz-adv-x="1100" d="M55 305q0 159 122.5 246.5t357.5 87.5h163v86q0 78 -41 121t-121 43q-71 0 -109.5 -34.5t-38.5 -95.5l-282 1l-1 6q-7 137 119 236.5t331 99.5q194 0 315 -98.5t121 -280.5v-447q0 -76 11.5 -143t36.5 -133h-292q-16 37 -27.5 78t-16.5 84q-45 -79 -118.5 -131 t-175.5 -52q-170 0 -262 87.5t-92 238.5zM201 1474l2 6h212q0 -43 30 -69.5t94 -26.5q63 0 93.5 26.5t30.5 69.5h213l1 -6q6 -100 -87 -164t-251 -64t-251.5 64t-86.5 164zM245 1586q0 73 46.5 127.5t117.5 54.5q43 0 117.5 -33.5t116.5 -33.5q27 0 46.5 24.5t19.5 60.5 l122 -34q0 -74 -47.5 -127.5t-116.5 -53.5q-56 0 -125.5 34t-108.5 34q-29 0 -48 -25t-19 -61zM346 315q0 -54 36 -87t98 -33q77 0 137 38t81 88v153h-163q-93 0 -141 -46.5t-48 -112.5z" />
<glyph unicode="&#x1eb6;" horiz-adv-x="1311" d="M12 0l501 1456h299l499 -1456h-295l-99 314h-511l-99 -314h-295zM315 1890l2 6h213q0 -53 30.5 -87t95.5 -34q63 0 93.5 34t30.5 87h214l2 -6q5 -127 -88.5 -207.5t-251.5 -80.5q-159 0 -253 80.5t-88 207.5zM478 543h367l-180 572h-6zM491 -113h327v-241h-327v241z" />
<glyph unicode="&#x1eb7;" horiz-adv-x="1100" d="M55 305q0 159 122.5 246.5t357.5 87.5h163v86q0 78 -41 121t-121 43q-71 0 -109.5 -34.5t-38.5 -95.5l-282 1l-1 6q-7 137 119 236.5t331 99.5q194 0 315 -98.5t121 -280.5v-447q0 -76 11.5 -143t36.5 -133h-292q-16 37 -27.5 78t-16.5 84q-45 -79 -118.5 -131 t-175.5 -52q-170 0 -262 87.5t-92 238.5zM204 1568l2 6h213q0 -53 30.5 -87t95.5 -34q63 0 93.5 34t30.5 87h214l2 -6q5 -127 -88.5 -207.5t-251.5 -80.5q-159 0 -253 80.5t-88 207.5zM314 -99h327v-241h-327v241zM346 315q0 -54 36 -87t98 -33q77 0 137 38t81 88v153h-163 q-93 0 -141 -46.5t-48 -112.5z" />
<glyph unicode="&#x1eb8;" horiz-adv-x="1176" d="M136 0v1456h995v-225h-703v-366h603v-225h-603v-416h705v-224h-997zM441 -103h327v-241h-327v241z" />
<glyph unicode="&#x1eb9;" horiz-adv-x="1084" d="M77 510v40q0 241 132.5 397t355.5 155q219 0 340 -132t121 -357v-159h-646l-2 -6q8 -107 71.5 -176t172.5 -69q97 0 161 19.5t140 61.5l79 -180q-66 -54 -173 -89.5t-238 -35.5q-234 0 -374 150t-140 381zM379 652l3 -5h358v26q0 93 -43.5 148.5t-131.5 55.5 q-81 0 -128 -62t-58 -163zM411 -113h327v-241h-327v241z" />
<glyph unicode="&#x1eba;" horiz-adv-x="1176" d="M136 0v1456h995v-225h-703v-366h603v-225h-603v-416h705v-224h-997zM475 1858l7 133q185 0 283 -52t98 -143q0 -64 -43 -100t-107 -45v-65h-218l-16 137q74 3 105.5 18t26.5 45v6q5 35 -32 50.5t-104 15.5z" />
<glyph unicode="&#x1ebb;" horiz-adv-x="1084" d="M77 510v40q0 241 132.5 397t355.5 155q219 0 340 -132t121 -357v-159h-646l-2 -6q8 -107 71.5 -176t172.5 -69q97 0 161 19.5t140 61.5l79 -180q-66 -54 -173 -89.5t-238 -35.5q-234 0 -374 150t-140 381zM379 652l3 -5h358v26q0 93 -43.5 148.5t-131.5 55.5 q-81 0 -128 -62t-58 -163zM417 1537l7 133q185 0 283 -52t98 -143q0 -64 -43 -100t-107 -45v-65h-218l-16 137q74 3 105.5 18t26.5 45v6q5 35 -32 50.5t-104 15.5z" />
<glyph unicode="&#x1ebc;" horiz-adv-x="1176" d="M136 0v1456h995v-225h-703v-366h603v-225h-603v-416h705v-224h-997zM229 1644q0 94 59.5 163.5t149.5 69.5q56 0 152 -43.5t148 -43.5q34 0 60 32t26 79l154 -45q0 -96 -59.5 -163.5t-150.5 -67.5q-70 0 -158.5 43.5t-140.5 43.5q-36 0 -60 -32.5t-24 -77.5z" />
<glyph unicode="&#x1ebd;" horiz-adv-x="1084" d="M77 510v40q0 241 132.5 397t355.5 155q219 0 340 -132t121 -357v-159h-646l-2 -6q8 -107 71.5 -176t172.5 -69q97 0 161 19.5t140 61.5l79 -180q-66 -54 -173 -89.5t-238 -35.5q-234 0 -374 150t-140 381zM171 1323q0 94 59.5 163.5t149.5 69.5q56 0 152 -43.5t148 -43.5 q34 0 60 32t26 79l154 -45q0 -96 -59.5 -163.5t-150.5 -67.5q-70 0 -158.5 43.5t-140.5 43.5q-36 0 -60 -32.5t-24 -77.5zM379 652l3 -5h358v26q0 93 -43.5 148.5t-131.5 55.5q-81 0 -128 -62t-58 -163z" />
<glyph unicode="&#x1ebe;" horiz-adv-x="1176" d="M136 0v1456h995v-225h-703v-366h603v-225h-603v-416h705v-224h-997zM190 1589l297 253h240l296 -253l-2 -6h-262l-153 143l-151 -143h-263zM934 1755l148 271h270l-214 -271h-204z" />
<glyph unicode="&#x1ebf;" horiz-adv-x="1084" d="M77 510v40q0 241 132.5 397t355.5 155q219 0 340 -132t121 -357v-159h-646l-2 -6q8 -107 71.5 -176t172.5 -69q97 0 161 19.5t140 61.5l79 -180q-66 -54 -173 -89.5t-238 -35.5q-234 0 -374 150t-140 381zM132 1268l297 253h240l296 -253l-2 -6h-262l-153 143l-151 -143 h-263zM379 652l3 -5h358v26q0 93 -43.5 148.5t-131.5 55.5q-81 0 -128 -62t-58 -163zM876 1434l148 271h270l-214 -271h-204z" />
<glyph unicode="&#x1ec0;" horiz-adv-x="1176" d="M-140 2018h268l149 -271h-204zM136 0v1456h995v-225h-703v-366h603v-225h-603v-416h705v-224h-997zM187 1581l297 253h240l296 -253l-2 -6h-262l-152 143l-152 -143h-263z" />
<glyph unicode="&#x1ec1;" horiz-adv-x="1084" d="M-198 1697h268l149 -271h-204zM77 510v40q0 241 132.5 397t355.5 155q219 0 340 -132t121 -357v-159h-646l-2 -6q8 -107 71.5 -176t172.5 -69q97 0 161 19.5t140 61.5l79 -180q-66 -54 -173 -89.5t-238 -35.5q-234 0 -374 150t-140 381zM129 1260l297 253h240l296 -253 l-2 -6h-262l-152 143l-152 -143h-263zM379 652l3 -5h358v26q0 93 -43.5 148.5t-131.5 55.5q-81 0 -128 -62t-58 -163z" />
<glyph unicode="&#x1ec2;" horiz-adv-x="1176" d="M136 0v1456h995v-225h-703v-366h603v-225h-603v-416h705v-224h-997zM181 1553l293 253h250l292 -253l-3 -6h-255l-160 153l-159 -153h-255zM925 1914l7 111q156 0 238.5 -43.5t82.5 -120.5q0 -55 -36.5 -85.5t-89.5 -37.5v-55h-185l-13 116q62 3 88.5 15t22.5 37v6 q4 30 -27 43.5t-88 13.5z" />
<glyph unicode="&#x1ec3;" horiz-adv-x="1084" d="M77 510v40q0 241 132.5 397t355.5 155q219 0 340 -132t121 -357v-159h-646l-2 -6q8 -107 71.5 -176t172.5 -69q97 0 161 19.5t140 61.5l79 -180q-66 -54 -173 -89.5t-238 -35.5q-234 0 -374 150t-140 381zM123 1234l293 253h250l292 -253l-3 -6h-255l-160 153l-159 -153 h-255zM379 652l3 -5h358v26q0 93 -43.5 148.5t-131.5 55.5q-81 0 -128 -62t-58 -163zM867 1595l7 111q156 0 238.5 -43.5t82.5 -120.5q0 -55 -36.5 -85.5t-89.5 -37.5v-55h-185l-13 116q62 3 88.5 15t22.5 37v6q4 30 -27 43.5t-88 13.5z" />
<glyph unicode="&#x1ec4;" horiz-adv-x="1176" d="M136 0v1456h995v-225h-703v-366h603v-225h-603v-416h705v-224h-997zM180 1540l294 228h238l292 -228l-2 -6h-251l-158 137l-159 -137h-252zM327 1855q0 69 40.5 123.5t104.5 54.5q41 0 118 -34t115 -34q24 0 40.5 27t16.5 62l113 -39q0 -70 -42 -123t-106 -53 q-51 0 -123 35t-109 35q-25 0 -40.5 -25t-15.5 -59z" />
<glyph unicode="&#x1ec5;" horiz-adv-x="1084" d="M77 510v40q0 241 132.5 397t355.5 155q219 0 340 -132t121 -357v-159h-646l-2 -6q8 -107 71.5 -176t172.5 -69q97 0 161 19.5t140 61.5l79 -180q-66 -54 -173 -89.5t-238 -35.5q-234 0 -374 150t-140 381zM122 1221l294 228h238l292 -228l-2 -6h-251l-158 137l-159 -137 h-252zM269 1536q0 69 40.5 123.5t104.5 54.5q41 0 118 -34t115 -34q24 0 40.5 27t16.5 62l113 -39q0 -70 -42 -123t-106 -53q-51 0 -123 35t-109 35q-25 0 -40.5 -25t-15.5 -59zM379 652l3 -5h358v26q0 93 -43.5 148.5t-131.5 55.5q-81 0 -128 -62t-58 -163z" />
<glyph unicode="&#x1ec6;" horiz-adv-x="1176" d="M136 0v1456h995v-225h-703v-366h603v-225h-603v-416h705v-224h-997zM238 1592v26l282 240h169l287 -243v-23h-232l-140 133l-139 -133h-227zM441 -103h327v-241h-327v241z" />
</font>
</defs>
</svg>
